iTunes

1+1

iTunes

мы

iTunes

1

iTunes

Чернобыль

iTunes

Ральф против интернета

Лицензия

ПШазам

Лицензия

Игра престолов

Лицензия

30
pack

ВАЖНО

!!Акция!!

Alien_RageХит недели

RePack

Resident Evil 21

ИГРА 18+

pack

RePack

Metro:Exodus

!!Акция!!

Alien_Rage

RePack

fifa19

RePack

Assassins Creed: Odyssey

RePack

NEED FOR SPEED™ PAYBACK

3 сезон

9 сезон

Бесстыжие 9 сезон

Все сериалы

все сериалы на PB.wtf

RePack

FAR CRY 5
Ребята, катастрофически не хватает 7730р. для оплаты серверов за АВГУСТ (всвязи с блокировками трафик упал в 3 раза), 1-2р., выручайте.
  

Как приручить дракона 3 / How to Train Your Dragon: The Hidden World (Дин ДеБлуа) [2019, мультфильм, фэнтези, боевик, BDRip-AVC] DUB [Лицензия] +MVO [HDRezka Studio] piratbit.cc

Как приручить дракона 3 через торрент piratbit.cc

Раздают: 12 [ 8 KB/s ]
Размер: 2.15 GB | Добавлен: 3 мес. 8 д. назад | Торрент скачан:201 раз
Скачать  

11-06-2019 00:43 Как приручить дракона 3 Скачать торрент  

Как приручить дракона 3 / How to Train Your Dragon: The Hidden World
Год выпуска: 2019
Страна: США
Жанр: мультфильм, фэнтези, боевик, комедия, приключения, семейный
Продолжительность: 01:44:06
Перевод:

#1: Дублированный | Лицензия
#2: Профессиональный многоголосый | HDRezka Studio

Субтитры: Русские

Режиссер: Дин ДеБлуа

rating

В ролях:

Джей Барушель (Hiccup, озвучка), Кейт Бланшетт (Valka, озвучка), Крэйг Фергюсон (Gobber, озвучка), Америка Феррера (Astrid, озвучка), Джона Хилл (Snotlout, озвучка), Кит Харингтон (Eret, озвучка), Джастин Руппл (Tuffnut, озвучка), Кристофер Минц-Плассе (Fishlegs, озвучка), Ф. Мюррэй Абрахам (Grimmel, озвучка), Джерард Батлер (Stoick, озвучка), Кристен Уиг (Ruffnut, озвучка), Робин Аткин Даунс (Ack, озвучка)
Описание:

Когда-то викинги жили в гармонии с драконами. В те времена они делили радость, горе... и последние штаны. Казалось, что так будет всегда, но появление загадочной Дневной Фурии изменило жизнь острова. И теперь Иккинг и Беззубик столкнутся с безжалостным охотником на драконов, жаждущим уничтожить все, что им дорого.

Качество: BDRip-AVC
Формат: MKV

Видео: MPEG-4 AVC, 1024x436, 2317 Kbit/s, 23.976 fps
Аудио#1: 48 kHz, AC3, 5.1, 448 Kbps | Дублированный | RUS |
Аудио#2: 48 kHz, AC3, 2.0, 192 Kbps | HDRezka Studio | RUS |
скриншот  скриншот  скриншот  скриншот  скриншот  

Общее
Уникальный идентификатор : 250967963988941647797845739039799255491 (0xBCCEABF40F86F16BB4F508AFB59E21C3)
Полное имя : D:ЗагрузкиHow.to.Train.Your.Dragon.3.2019.x264.BDRip.(AVC).OlLanDGroup.mkv
Формат : Matroska
Версия формата : Version 4 / Version 2
Размер файла : 2,15 Гбайт
Продолжительность : 1 ч. 44 м.
Общий поток : 2955 Кбит/сек
Название фильма : Как приручить дракона 3.2019.Rip by: ollan
Дата кодирования : UTC 2019-06-10 21:46:48
Программа кодирования : mkvmerge v6.5.0 ('Isn't she lovely') built on Oct 20 2013 12:50:05
Библиотека кодирования : libebml v1.3.0 + libmatroska v1.4.1
Обложка : Yes
Attachments : Cover - How.To.Train.Your.Dragon.3.png

Видео
Идентификатор : 1
Формат : AVC
Формат/Информация : Advanced Video Codec
Профиль формата : High@L4.1
Настройки формата : CABAC / 10 Ref Frames
Параметр CABAC формата : Да
Параметр ReFrames формата : 10 кадров
Идентификатор кодека : V_MPEG4/ISO/AVC
Продолжительность : 1 ч. 44 м.
Битрейт : 2317 Кбит/сек
Ширина : 1024 пикселя
Высота : 436 пикселей
Соотношение сторон : 2,35:1
Режим частоты кадров : Постоянный
Частота кадров : 23,976 (24000/1001) кадра/сек
Цветовое пространство : YUV
Субдискретизация насыщенности : 4:2:0
Битовая глубина : 8 бит
Тип развёртки : Прогрессивная
Бит/(Пиксели*Кадры) : 0.216
Размер потока : 1,64 Гбайт (76%)
Библиотека кодирования : x264 core 146 r2538 121396c
Настройки программы : cabac=1 / ref=10 / deblock=1:-3:-3 / analyse=0x3:0x133 / me=umh / subme=11 / psy=1 / psy_rd=0.95:0.05 / mixed_ref=1 / me_range=64 / chroma_me=1 / trellis=2 / 8x8dct=1 / cqm=0 / deadzone=21,11 / fast_pskip=0 / chroma_qp_offset=-3 / threads=12 / lookahead_threads=3 / sliced_threads=0 / nr=0 / decimate=0 / interlaced=0 / bluray_compat=0 / constrained_intra=0 / bframes=10 / b_pyramid=2 / b_adapt=2 / b_bias=0 / direct=3 / weightb=1 / open_gop=0 / weightp=2 / keyint=240 / keyint_min=23 / scenecut=40 / intra_refresh=0 / rc_lookahead=40 / rc=2pass / mbtree=0 / bitrate=2317 / ratetol=1.0 / qcomp=0.60 / qpmin=0 / qpmax=69 / qpstep=4 / cplxblur=20.0 / qblur=0.5 / vbv_maxrate=50000 / vbv_bufsize=62500 / nal_hrd=none / filler=0 / ip_ratio=1.40 / pb_ratio=1.30 / aq=1:1.00
Язык : English
Default : Да
Forced : Нет

Аудио #1
Идентификатор : 2
Формат : AC-3
Формат/Информация : Audio Coding 3
Идентификатор кодека : A_AC3
Продолжительность : 1 ч. 44 м.
Вид битрейта : Постоянный
Битрейт : 448 Кбит/сек
Каналы : 6 каналов
Расположение каналов : Front: L C R, Side: L R, LFE
Частота : 48,0 КГц
Частота кадров : 31,250 кадров/сек (1536 SPF)
Битовая глубина : 16 бит
Метод сжатия : С потерями
Размер потока : 334 Мбайт (15%)
Заголовок : Лицензия
Язык : Russian
Service kind : Complete Main
Default : Да
Forced : Нет

Аудио #2
Идентификатор : 3
Формат : AC-3
Формат/Информация : Audio Coding 3
Идентификатор кодека : A_AC3
Продолжительность : 1 ч. 44 м.
Вид битрейта : Постоянный
Битрейт : 192 Кбит/сек
Каналы : 2 канала
Расположение каналов : Front: L R
Частота : 48,0 КГц
Частота кадров : 31,250 кадров/сек (1536 SPF)
Битовая глубина : 16 бит
Метод сжатия : С потерями
Размер потока : 143 Мбайт (6%)
Заголовок : HDRezka Studio
Язык : Russian
Service kind : Complete Main
Default : Нет
Forced : Нет

Текст
Идентификатор : 4
Формат : UTF-8
Идентификатор кодека : S_TEXT/UTF8
Идентификатор кодека/Информация : UTF-8 Plain Text
Заголовок : Full
Язык : Russian
Default : Нет
Forced : Нет

Меню
00:00:00.000 : en:Chapter 01
00:05:13.521 : en:Chapter 02
00:10:26.834 : en:Chapter 03
00:14:52.224 : en:Chapter 04
00:20:33.065 : en:Chapter 05
00:24:38.685 : en:Chapter 06
00:28:40.885 : en:Chapter 07
00:31:10.118 : en:Chapter 08
00:37:35.127 : en:Chapter 09
00:44:38.550 : en:Chapter 10
00:47:53.579 : en:Chapter 11
00:53:11.021 : en:Chapter 12
00:57:36.286 : en:Chapter 13
01:01:25.056 : en:Chapter 14
01:08:55.923 : en:Chapter 15
01:14:17.703 : en:Chapter 16
01:19:31.141 : en:Chapter 17
01:23:23.289 : en:Chapter 18
01:28:24.716 : en:Chapter 19
01:33:53.377 : en:Chapter 20

piratbit.cc



Скачать Как приручить дракона 3 через торрент http://img14.lostpic.net/2019/04/06/feec4f011bb3b55f40ae24624f9b6f6b.png Скачать фильм Как приручить дракона 3 через торрент бесплантно в хорошем качестве Описание: Когда-то викинги жили в гармонии с драконами. В те времена они делили радость, горе... и последние штаны. Казалось, что так будет ... 10 10 8
Info! Золотая раздача, скачанное не засчитывается.
Торрент: Зарегистрирован [2019-06-11 00:43] · скачан: 201 раз
Статус: √ проверено
Размер: 2.15 GB
Как cкачать? Как скачать Как приручить дракона 3 через торрент | qTorrent

% Раздел Тема Автор DL S | L
Иностранные мультфильмы [ 744 MB ] Как приручить дракона 3 / How to Train Your Dragon: The Hidden World [2019 мультфильм HDRip] DUB [] bober100 Скачать
4 | 0
Мультфильмы (48-60 fps) [ 20.88 GB ] Как приручить дракона 3 / How to Train Your Dragon: The Hidden World [2019 мультфильм BDRip 1080p 60 fps] sheker187 Скачать
1 | 0
Ultra HD (UHD: 2K, 4K, 8K) [ 88.44 GB ] Как приручить дракона 3 / How to Train Your Dragon: The Hidden World [2019 мультфильм UHD Blu-Ray EUR 2160p] DUB [] bober100 Скачать
3 | 0
Зарубежные Мультфильмы (BDRip 1080p, 720p, Blu-ray, BD-Remux) [ 8.29 GB ] Как приручить дракона 3 / How to Train Your Dragon: The Hidden World [2019 мультфильм BDRip 1080p] DUB [] +MVO [HDRezka Studio] bober100 Скачать
8 | 1
Зарубежные Мультфильмы (BDRip 1080p, 720p, Blu-ray, BD-Remux) [ 5.06 GB ] Как приручить дракона 3 / How to Train Your Dragon: The Hidden World [2019 мультфильм BDRip 720p] DUB [] +MVO [HDRezka Studio] bober100 Скачать
8 | 0
Иностранные мультфильмы [ 1.46 GB ] Как приручить дракона 3 / How to Train Your Dragon: The Hidden World [2019 мультфильм BDRip] DUB [ Blu-Ray 4K] bober100 Скачать
8 | 0
Зарубежные Мультфильмы (BDRip 1080p, 720p, Blu-ray, BD-Remux) [ 34.83 GB ] Как приручить дракона 3 / How to Train Your Dragon: The Hidden World [2019 мультфильм BD Remux 1080p] [2D/3D] DUB [] bober100 Скачать
1 | 0


>> Регистрируемся здесь <<






Отзывы и комментарии о схеме читаем и пишем здесь: ---> Отзывы и комментарии о схеме

Новые благодарочки в телеграм довольных пользователей:
скриншот   скриншот   скриншот   скриншот   скриншот
    Дорогой пользователь! Огромная просьба, поблагодарите релизера, оцените раздачу и оставьте свои комментарий, если Вы скачали Как приручить дракона 3 через торрент бесплатно! Внесите свою лепту в развитие PiratBit!
    Комментировать посты могут только пользователи прошедшие не сложную регистрацию
    Показать сообщения:    

    Как приручить дракона 3 через торрент
    Скачать бесплатно Как приручить дракона 3
    Как приручить дракона 3 скачать торрент
    Как приручить дракона 3 смотреть онлайн
    Cкачать фильм Как приручить дракона 3 бесплатно
    Как приручить дракона 3 скачать торрент в хорошем качестве
    Как приручить дракона 3 смотреть онлайн бесплатно в хорошем качестве


    Вы не можете начинать темы
    Вы не можете отвечать на сообщения
    Вы не можете редактировать свои сообщения
    Вы не можете удалять свои сообщения
    Вы не можете голосовать в опросах
    Вы не можете прикреплять файлы к сообщениям
    Вы можете скачивать файлы