iTunes

1+1

iTunes

мы

iTunes

1

iTunes

Чернобыль

iTunes

Ральф против интернета

Лицензия

ПШазам

Лицензия

Игра престолов

Лицензия

30
pack

ВАЖНО

!!Акция!!

Alien_RageХит недели

RePack

Resident Evil 21

ИГРА 18+

pack

RePack

Metro:Exodus

!!Акция!!

Alien_Rage

RePack

fifa19

RePack

Assassins Creed: Odyssey

RePack

NEED FOR SPEED™ PAYBACK

3 сезон

9 сезон

Бесстыжие 9 сезон

Все сериалы

все сериалы на PB.wtf

RePack

FAR CRY 5
Ребята, катастрофически не хватает 7730р. для оплаты серверов за АВГУСТ (всвязи с блокировками трафик упал в 3 раза), 1-2р., выручайте.
  

Зыбучий песок / Зыбучие пески / Quicksand / Сезон: 1 / Серии: 1-6 из 6 (Пер-Олав Соренсен) [2019, Драма, WEB-DL 1080p] DVO [Кубик в Кубе] piratbit.cc

Зыбучий песок через торрент piratbit.cc

Размер: 11.41 GB | Добавлен: 3 мес. 8 д. назад | Торрент скачан:3 раза
Скачать  

12-06-2019 00:25 Зыбучий песок Скачать торрент  

Зыбучий песок | Зыбучие пески | Quicksand Год выпуска: 2019
Страна: Швеция
Жанр: Драма
Продолжительность: ~ 00:45:00
Перевод: Профессиональный (двухголосый закадровый) | Кубик в Кубе
Субтитры: Английский

Режиссёр: Пер-Олав Соренсен

В ролях:

Ханна Арден, Феликс Сандман, Хелена аф Сандеберг, Свен Воллтер, Шанти Рони, Реубен Сальмандер, Самуэль Фрёлер, Мария Сундбом, Анна Бьёрк, Анита Олатунжи и др.

Описание:

Массовая стрельба произошла в одной из элитных шведских школ. В этом преступлении обвиняют Майю. На суде все пытаются понять её мотивы и разобраться, кто же она — убийца или жертва?



Качество: WEBRip 1080p
Формат: MKV

Видео: 1920x1080 (16:9), 25.000 fps, ~6390 Kbps, 0.099 bits/pixel
Аудио#1: Rus AC3, 48.0 KHz, 6 ch, 448 kbps | Кубик в Кубе
Аудио#2: Eng AC3, 48.0 KHz, 6 ch, 448 kbps | английский
Аудио#3: Swd AC3, 48.0 KHz, 6 ch, 448 kbps | шведский
скриншот  скриншот  скриншот  скриншот  

Общее
Уникальный идентификатор : 21487949785281129712102333176294499021 (0x102A6DB84DA98B5C25DEA1286B8562CD)
Формат : Matroska
Версия формата : Version 4
Размер файла : 1,97 Гбайт
Продолжительность : 45 м. 26 с.
Режим общего битрейта : Переменный
Общий поток : 6218 Кбит/сек
Дата кодирования : UTC 2019-05-24 14:52:52
Программа кодирования : mkvmerge v33.1.0 ('Primrose') 64-bit
Библиотека кодирования : libebml v1.3.7 + libmatroska v1.5.0

Видео
Идентификатор : 1
Формат : AVC
Формат/Информация : Advanced Video Codec
Профиль формата : Main@L4
Настройки формата : CABAC / 3 Ref Frames
Параметр CABAC формата : Да
Параметр RefFrames формата : 3 кадра
Идентификатор кодека : V_MPEG4/ISO/AVC
Продолжительность : 45 м. 26 с.
Вид битрейта : Переменный
Битрейт : 5110 Кбит/сек
Максимальный битрейт : 7665 Кбит/сек
Ширина : 1920 пикселей
Высота : 1080 пикселей
Соотношение сторон : 16:9
Режим частоты кадров : Постоянный
Частота кадров : 25,000 кадров/сек
Цветовое пространство : YUV
Субдискретизация насыщенности : 4:2:0
Битовая глубина : 8 бит
Тип развёртки : Прогрессивная
Бит/(Пиксели*Кадры) : 0.099
Размер потока : 1,61 Гбайт (81%)
Библиотека кодирования : x264 core 148 r2715 7e75228
Настройки программы : cabac=1 / ref=3 / deblock=1:0:0 / analyse=0x1:0x111 / me=umh / subme=10 / psy=1 / psy_rd=1.00:0.00 / mixed_ref=1 / me_range=24 / chroma_me=1 / trellis=2 / 8x8dct=0 / cqm=0 / deadzone=21,11 / fast_pskip=1 / chroma_qp_offset=-2 / threads=8 / lookahead_threads=1 / sliced_threads=0 / nr=0 / decimate=1 / interlaced=0 / bluray_compat=0 / stitchable=1 / constrained_intra=0 / bframes=2 / b_pyramid=0 / b_adapt=2 / b_bias=0 / direct=3 / weightb=1 / open_gop=0 / weightp=2 / keyint=50 / keyint_min=26 / scenecut=0 / intra_refresh=0 / rc_lookahead=50 / rc=2pass / mbtree=1 / bitrate=5110 / ratetol=1.0 / qcomp=0.50 / qpmin=6 / qpmax=51 / qpstep=4 / cplxblur=20.0 / qblur=0.5 / vbv_maxrate=7665 / vbv_bufsize=10220 / nal_hrd=vbr / filler=0 / ip_ratio=1.40 / aq=1:1.00
Default : Да
Forced : Нет

Аудио #1
Идентификатор : 2
Формат : AC-3
Формат/Информация : Audio Coding 3
Коммерческое название : Dolby Digital
Идентификатор кодека : A_AC3
Продолжительность : 45 м. 26 с.
Вид битрейта : Постоянный
Битрейт : 384 Кбит/сек
Каналы : 6 каналов
ChannelLayout : L R C LFE Ls Rs
Частота : 48,0 КГц
Частота кадров : 31,250 кадров/сек (1536 SPF)
Битовая глубина : 16 бит
Метод сжатия : С потерями
Размер потока : 125 Мбайт (6%)
Заголовок : KvK
Язык : Russian
ServiceKind/String : Complete Main
Default : Да
Forced : Нет

Аудио #2
Идентификатор : 3
Формат : AC-3
Формат/Информация : Audio Coding 3
Коммерческое название : Dolby Digital
Идентификатор кодека : A_AC3
Продолжительность : 45 м. 26 с.
Вид битрейта : Постоянный
Битрейт : 384 Кбит/сек
Каналы : 6 каналов
ChannelLayout : L R C LFE Ls Rs
Частота : 48,0 КГц
Частота кадров : 31,250 кадров/сек (1536 SPF)
Битовая глубина : 16 бит
Метод сжатия : С потерями
Размер потока : 125 Мбайт (6%)
Язык : English
ServiceKind/String : Complete Main
Default : Нет
Forced : Нет

Аудио #3
Идентификатор : 4
Формат : AC-3
Формат/Информация : Audio Coding 3
Коммерческое название : Dolby Digital
Идентификатор кодека : A_AC3
Продолжительность : 45 м. 26 с.
Вид битрейта : Постоянный
Битрейт : 384 Кбит/сек
Каналы : 6 каналов
ChannelLayout : L R C LFE Ls Rs
Частота : 48,0 КГц
Частота кадров : 31,250 кадров/сек (1536 SPF)
Битовая глубина : 16 бит
Метод сжатия : С потерями
Размер потока : 125 Мбайт (6%)
Язык : Swedish
ServiceKind/String : Complete Main
Default : Нет
Forced : Нет

Текст #1
Идентификатор : 5
Формат : UTF-8
Идентификатор кодека : S_TEXT/UTF8
Идентификатор кодека/Информация : UTF-8 Plain Text
Продолжительность : 43 м. 29 с.
Битрейт : 57 бит/сек
ElementCount : 492
Размер потока : 18,2 Кбайт (0%)
Заголовок : English
Язык : English
Default : Нет
Forced : Нет

Текст #2
Идентификатор : 6
Формат : UTF-8
Идентификатор кодека : S_TEXT/UTF8
Идентификатор кодека/Информация : UTF-8 Plain Text
Продолжительность : 43 м. 29 с.
Битрейт : 73 бит/сек
ElementCount : 619
Размер потока : 23,3 Кбайт (0%)
Заголовок : English
Язык : English
Default : Нет
Forced : Нет

piratbit.cc



Скачать Зыбучий песок через торрент http://img16.lostpic.net/2019/07/24/d52e9bb737a8471018e5fa151263de06.png Скачать фильм Зыбучий песок через торрент бесплантно в хорошем качестве Описание: Массовая стрельба произошла в одной из элитных шведских школ. В этом преступлении обвиняют Майю. На суде все пытаются понять её ... 10 10 3
Торрент: Зарегистрирован [2019-06-12 00:25] · скачан: 3 раз
Статус: √ проверено
Размер: 11.41 GB
Как cкачать? Как скачать Зыбучий песок через торрент | qTorrent

% Раздел Тема Автор DL S | L
Зарубежные сериалы [ 4.33 GB ] Зыбучий песок / Зыбучие пески / Quicksand / Сезон: 1 / Серии: 1-6 из 6 [2019 WEBRip] DVO [Кубик в Кубе] bober100 Скачать
1 | 0


>> Регистрируемся здесь <<






Отзывы и комментарии о схеме читаем и пишем здесь: ---> Отзывы и комментарии о схеме

Новые благодарочки в телеграм довольных пользователей:
скриншот   скриншот   скриншот   скриншот   скриншот
    Дорогой пользователь! Огромная просьба, поблагодарите релизера, оцените раздачу и оставьте свои комментарий, если Вы скачали Зыбучий песок через торрент бесплатно! Внесите свою лепту в развитие PiratBit!
    Комментировать посты могут только пользователи прошедшие не сложную регистрацию
    Показать сообщения:    

    Зыбучий песок через торрент
    Скачать бесплатно Зыбучий песок
    Зыбучий песок скачать торрент
    Зыбучий песок смотреть онлайн
    Cкачать фильм Зыбучий песок бесплатно
    Зыбучий песок скачать торрент в хорошем качестве
    Зыбучий песок смотреть онлайн бесплатно в хорошем качестве


    Вы не можете начинать темы
    Вы не можете отвечать на сообщения
    Вы не можете редактировать свои сообщения
    Вы не можете удалять свои сообщения
    Вы не можете голосовать в опросах
    Вы не можете прикреплять файлы к сообщениям
    Вы можете скачивать файлы