Лицензия

30

iTunes

мы

iTunes

1

1 сезон

Чернобыль

1 сезон

Ральф против интернета

MVO

Покемон. Детектив Пикачу

8 сезон

Игра престолов

iTunes

1+1

ИГРА 18+

pack

ВАЖНО

!!Акция!!

Alien_RageХит недели

RePack

Resident Evil 21
pack

RePack

Metro:Exodus

!!Акция!!

Alien_Rage

RePack

fifa19

RePack

Assassins Creed: Odyssey

RePack

NEED FOR SPEED™ PAYBACK

3 сезон

9 сезон

Бесстыжие 9 сезон

Все сериалы

все сериалы на PB.wtf

RePack

FAR CRY 5
Ребята, катастрофически не хватает 2730р. для оплаты серверов за МАЙ (всвязи с блокировками трафик упал в 3 раза), 1-2р., выручайте.
  

Зыбучий песок / Quicksand / Сезон: 1 / Серии: 1-6 из 6 (Пер-Олав Соренсен, Лиза Фарзанех) [2019, драма, WEB-DL 1080p] MVO [TVShows] piratbit.cc

Зыбучий песок через торрент piratbit.cc

Размер: 10.66 GB | Добавлен: 15 д. назад | Торрент скачан:2 раза
Скачать  

12-06-2019 00:33 Зыбучий песок Скачать торрент  

Зыбучий песок / Quicksand Год выпуска: 2019
Страна: Швеция
Жанр:драма
Продолжительность: ~ 00:45:00
Перевод: Профессиональный (многоголосый закадровый) | TVShows
Субтитры: английские

Режиссёр: Пер-Олав Соренсен / Per-Olav Sorensen, Лиза Фарзанех / Lisa Farzaneh

В ролях:

Ханна Арден, Феликс Сэндман, Давид Денсик, Субхейб Салех, Анна Бьёрк, Ребека Хемсе, Ирис Хернгрен, Каллед Мустонен, Маралл Насири, Элла Раппих

Описание:

Массовая стрельба произошла в одной из элитных шведских школ. В этом преступлении обвиняют Майю. На суде все пытаются понять её мотивы и разобраться, кто же она — убийца или жертва?

rating


Качество: WEB-DL 1080p
Контейнер: MKV

Видео: MPEG-4 AVC, 1920x1080 (16:9), 25.000 fps, ~ 5110 Kbps
Аудио 1: 48 kHz, AC3, 6 ch, 384 kbps | TVShows
Аудио 2: 48 kHz, AC3, 6 ch, 384 kbps | Original


Реклама: отсутствует
General
Unique ID : 281981493388207788656602727509874376409 (0xD423A90213A33DE9D758155C562AFED9)
Complete name : C:\Users\Desktop\Quicksand.S01.1080p.TVShows\Quicksand.S01E01.1080p.TVShows.mkv
Format : Matroska
Format version : Version 4 / Version 2
File size : 1.85 GiB
Duration : 45 min 26 s
Overall bit rate mode : Variable
Overall bit rate : 5 834 kb/s
Encoded date : UTC 2019-05-04 08:36:59
Writing application : mkvmerge v33.1.0 ('Primrose') 64-bit
Writing library : libebml v1.3.7 + libmatroska v1.5.0

Video
ID : 1
Format : AVC
Format/Info : Advanced Video Codec
Format profile : Main@L4
Format settings : CABAC / 3 Ref Frames
Format settings, CABAC : Yes
Format settings, ReFrames : 3 frames
Codec ID : V_MPEG4/ISO/AVC
Duration : 45 min 26 s
Bit rate mode : Variable
Bit rate : 5 110 kb/s
Maximum bit rate : 7 665 kb/s
Width : 1 920 pixels
Height : 1 080 pixels
Display aspect ratio : 16:9
Frame rate mode : Constant
Frame rate : 25.000 FPS
Color space : YUV
Chroma subsampling : 4:2:0
Bit depth : 8 bits
Scan type : Progressive
Bits/(Pixel*Frame) : 0.099
Stream size : 1.61 GiB (87%)
Writing library : x264 core 148 r2715 7e75228
Encoding settings : cabac=1 / ref=3 / deblock=1:0:0 / analyse=0x1:0x111 / me=umh / subme=10 / psy=1 / psy_rd=1.00:0.00 / mixed_ref=1 / me_range=24 / chroma_me=1 / trellis=2 / 8x8dct=0 / cqm=0 / deadzone=21,11 / fast_pskip=1 / chroma_qp_offset=-2 / threads=8 / lookahead_threads=1 / sliced_threads=0 / nr=0 / decimate=1 / interlaced=0 / bluray_compat=0 / stitchable=1 / constrained_intra=0 / bframes=2 / b_pyramid=0 / b_adapt=2 / b_bias=0 / direct=3 / weightb=1 / open_gop=0 / weightp=2 / keyint=50 / keyint_min=26 / scenecut=0 / intra_refresh=0 / rc_lookahead=50 / rc=2pass / mbtree=1 / bitrate=5110 / ratetol=1.0 / qcomp=0.50 / qpmin=6 / qpmax=51 / qpstep=4 / cplxblur=20.0 / qblur=0.5 / vbv_maxrate=7665 / vbv_bufsize=10220 / nal_hrd=vbr / filler=0 / ip_ratio=1.40 / aq=1:1.00
Default : Yes
Forced : No

Audio #1
ID : 2
Format : AC-3
Format/Info : Audio Coding 3
Codec ID : A_AC3
Duration : 45 min 26 s
Bit rate mode : Constant
Bit rate : 384 kb/s
Channel(s) : 6 channels
Channel positions : Front: L C R, Side: L R, LFE
Sampling rate : 48.0 kHz
Frame rate : 31.250 FPS (1536 SPF)
Bit depth : 16 bits
Compression mode : Lossy
Stream size : 125 MiB (7%)
Title : TVShows
Language : Russian
Service kind : Complete Main
Default : Yes
Forced : Yes

Audio #2
ID : 3
Format : AC-3
Format/Info : Audio Coding 3
Codec ID : A_AC3
Duration : 45 min 26 s
Bit rate mode : Constant
Bit rate : 384 kb/s
Channel(s) : 6 channels
Channel positions : Front: L C R, Side: L R, LFE
Sampling rate : 48.0 kHz
Frame rate : 31.250 FPS (1536 SPF)
Bit depth : 16 bits
Compression mode : Lossy
Stream size : 125 MiB (7%)
Title : Original
Language : Swedish
Service kind : Complete Main
Default : No
Forced : No

Text
ID : 4
Format : UTF-8
Codec ID : S_TEXT/UTF8
Codec ID/Info : UTF-8 Plain Text
Duration : 42 min 36 s
Bit rate : 66 b/s
Count of elements : 531
Stream size : 20.8 KiB (0%)
Title : English
Language : English
Default : No
Forced : No
piratbit.cc



Скачать Зыбучий песок через торрент https://i110.fastpic.ru/big/2019/0504/55/01b442d2b828b7916f21957e7b9ec955.jpg Скачать фильм Зыбучий песок через торрент бесплантно в хорошем качестве Описание:Массовая стрельба произошла в одной из элитных шведских школ. В этом преступлении обвиняют Майю. На суде все пытаются понять её ... 10 10 2
Торрент: Зарегистрирован [2019-06-12 00:33] · скачан: 2 раз
Статус: √ проверено
Размер: 10.66 GB
Как cкачать? Как скачать Зыбучий песок через торрент | qTorrent

% Раздел Тема Автор DL S | L
Зарубежные сериалы [ 11.41 GB ] Зыбучий песок / Quicksand / Сезон: 1 / Серии: 1-6 из 6 [2019 WEB-DL 1080p] DVO [Кубик в Кубе] bober100 Скачать
1 | 0
Зарубежные сериалы [ 10.67 GB ] Зыбучий песок / Quicksand / Сезон: 1 / Серии: 1-6 из 6 [2019 WEB-DL 1080p] MVO [NewStudio] bober100 Скачать
2 | 0
Зарубежные сериалы [ 4.64 GB ] Зыбучий песок / Quicksand / Сезон: 1 / Серии: 1-6 из 6 [2019 WEB-DL 720p] [MVO] killermax2013 Скачать
2 | 0
T Зарубежные сериалы [ 9.93 GB ] Зыбучий песок / Quicksand / Сезон: 1 / Серии: 1-6 из 6 [2019 WEBRip 1080p] [Multi Sub] killermax2013 Скачать
1 | 0


>> Регистрируемся здесь <<






Отзывы и комментарии о схеме читаем и пишем здесь: ---> Отзывы и комментарии о схеме

Новые благодарочки в телеграм довольных пользователей:
скриншот   скриншот   скриншот   скриншот   скриншот
    Дорогой пользователь! Огромная просьба, поблагодарите релизера, оцените раздачу и оставьте свои комментарий, если Вы скачали Зыбучий песок через торрент бесплатно! Внесите свою лепту в развитие PiratBit!
    Комментировать посты могут только пользователи прошедшие не сложную регистрацию
    Показать сообщения:    

    Зыбучий песок через торрент
    Скачать бесплатно Зыбучий песок
    Зыбучий песок скачать торрент
    Зыбучий песок смотреть онлайн
    Cкачать фильм Зыбучий песок бесплатно
    Зыбучий песок скачать торрент в хорошем качестве
    Зыбучий песок смотреть онлайн бесплатно в хорошем качестве


    Вы не можете начинать темы
    Вы не можете отвечать на сообщения
    Вы не можете редактировать свои сообщения
    Вы не можете удалять свои сообщения
    Вы не можете голосовать в опросах
    Вы не можете прикреплять файлы к сообщениям
    Вы можете скачивать файлы