iTunes

1+1

iTunes

мы

iTunes

1

iTunes

Чернобыль

iTunes

Ральф против интернета

Лицензия

ПШазам

Лицензия

Игра престолов

Лицензия

30
pack

ВАЖНО

!!Акция!!

Alien_RageХит недели

RePack

Resident Evil 21

ИГРА 18+

pack

RePack

Metro:Exodus

!!Акция!!

Alien_Rage

RePack

fifa19

RePack

Assassins Creed: Odyssey

RePack

NEED FOR SPEED™ PAYBACK

3 сезон

9 сезон

Бесстыжие 9 сезон

Все сериалы

все сериалы на PB.wtf

RePack

FAR CRY 5
Ребята, катастрофически не хватает 7730р. для оплаты серверов за АВГУСТ (всвязи с блокировками трафик упал в 3 раза), 1-2р., выручайте.
  

Смотритель маяка / Сезон: 1 / Серии: 1-12 из 12 (Павел Дроздов) [2019, Детектив, SATRip] piratbit.cc

Смотритель маяка через торрент piratbit.cc

Раздают: 4 [ 6 KB/s ] Качают: 1 [ 0 KB/s ]
Размер: 7.45 GB | Добавлен: 3 мес. 6 д. назад | Торрент скачан:139 раз
Скачать  

12-06-2019 02:52 Смотритель маяка Скачать торрент  

Смотритель маяка Год выпуска: 2019
Страна: Россия
Жанр: Детектив
Продолжительность: ~ 00:48:00 серия
Субтитры: отсутствуют

Режиссер: Павел Дроздов



В ролях:

Егор Бероев, Максим Дрозд, Екатерина Ванчугова, Виктор Тереля, Александра Богданова, Игорь Хрипунов, Василий Мищенко, Константин Снегов, Игорь Климов, Константин Адаев, Игорь Лебедев, Александр Волженский, Дмитрий Харатьян, Роман Пылаев, Михаил Сопов, Александр Богданов (II), Александр Коваль (IV), Вадим Цаллати, Алексей Марков, Вячеслав Гостищев, Сергей Голотвин, Юрий Алехин, А. Василенко, Алёна Гудкова, Роман Гайдамак, Ольга Сопова, Екатерина Архарова

Описание:

1914 год, канун Первой мировой войны. Русская контрразведка узнает о предстоящей крупной диверсии в Kрыму. Немецкий шпион собирается заминировать Севастопольскую бухту, уничтожить главные силы русского флота и открыть путь для немецко-турецкого десанта. Для выполнения задания он использует завербованных русских из самых разных слоев — от офицеров до уголовников. Один из них, Арсений Седов, становится другом шпиона Петра Ремезова. Враг не подозревает, что Арсений на самом деле разведчик Генерального Штаба.

Качество: SATRip
Формат: AVI

Видео: XviD, ~ 1650 Кбит/с, 720x304
Аудио: MP3, 2 ch, 192 Кбит/с
скриншот  скриншот  скриншот  скриншот  

Общее
Полное имя : D:\Smotritel.mayaka.2018.XviD.SATRip.25Kuzmich\Smotritel.mayaka.(01.seriya.iz.12).XviD.SATRip.25Kuzmich.avi
Формат : AVI
Формат/Информация : Audio Video Interleave
Размер файла : 631 Мбайт
Продолжительность : 47 м. 37 с.
Общий поток : 1851 Кбит/сек
Программа кодирования : VirtualDubMod 1.5.10.3 (build 2550/release)
Библиотека кодирования : VirtualDubMod build 2550/release

Видео
Идентификатор : 0
Формат : MPEG-4 Visual
Профиль формата : Advanced Simple@L5
Параметр BVOP формата : 1
Параметр QPel формата : Нет
Параметр GMC формата : Без точки перехода
Параметр матрицы формата : Default (MPEG)
Идентификатор кодека : XVID
Идентификатор кодека/Подсказка : XviD
Продолжительность : 47 м. 37 с.
Битрейт : 1650 Кбит/сек
Ширина : 720 пикселей
Высота : 304 пикселя
Соотношение сторон : 2,35:1
Частота кадров : 25,000 кадров/сек
Цветовое пространство : YUV
Субдискретизация насыщенности : 4:2:0
Битовая глубина : 8 бит
Тип развёртки : Прогрессивная
Метод сжатия : С потерями
Бит/(Пиксели*Кадры) : 0.301
Размер потока : 562 Мбайт (89%)
Библиотека кодирования : XviD 73

Аудио
Идентификатор : 1
Формат : MPEG Audio
Версия формата : Version 1
Профиль формата : Layer 3
Режим : Joint stereo
Расширение режима : MS Stereo
Идентификатор кодека : 55
Идентификатор кодека/Подсказка : MP3
Продолжительность : 47 м. 37 с.
Вид битрейта : Постоянный
Битрейт : 192 Кбит/сек
Каналы : 2 канала
Частота : 48,0 КГц
Метод сжатия : С потерями
Размер потока : 65,4 Мбайт (10%)
Выравнивание : Соединение по промежуткам
Продолжительность промежутка : 40 мс. (1,00 видеокадр)
Время предзагрузки промежутка : 504 мс.
Библиотека кодирования : LAME3.99r
Настройки программы : -m j -V 4 -q 2 -lowpass 18.6 -b 192

Когда раздача ведётся путём добавления новых серий, при каждом добавлении создётся новый торрент. Чтобы начать докачку новой серии, пользователям необходимо сделать следующее:
(1) остановить скачивание,
(2) удалить старый торрент у себя из клиента (старые серии удалять не надо),
(3) скачать новый торрент и запустить его у себя в клиенте вместо старого, при этом указать клиенту путь в старую папку, куда и должно происходить скачивание новых серий.
Ваш клиент при этом должен произвести хеширование (проверку) старой папки (если не производит сам - помогите ему сделать это), и будет докачивать только те серии, которых у вас ещё нет. Старые серии при этом не удаляются, а продолжают раздаваться!
Eсли вы уже удалили старые серии, то предотвратить повторную закачку старых серий можно, отжав галочку в соответсвующих местах при запуске нового торрента. По возможности, желательно не удалять старые серии как можно дольше, чтобы релизёр не столько продолжал раздавать старые серии, а смог сконцентрироваться на новых.
piratbit.cc



Скачать Смотритель маяка через торрент http://img16.lostpic.net/2019/06/12/f10279a53fd1ebf67e2f400745779b05.jpg Скачать фильм Смотритель маяка через торрент бесплантно в хорошем качестве Описание: 1914 год, канун Первой мировой войны. Русская контрразведка узнает о предстоящей крупной диверсии в Kрыму. Немецкий шпион ... 10 10 7
Info! Золотая раздача, скачанное не засчитывается.
Торрент: Зарегистрирован [2019-06-12 22:49] · скачан: 139 раз
Статус: √ проверено
Размер: 7.45 GB
Как cкачать? Как скачать Смотритель маяка через торрент | qTorrent

% Раздел Тема Автор DL S | L
Наши сериалы [ 7.41 GB ] Смотритель маяка / Сезон: 1 / Серии: 1-12 из 12 [2019 WEBRip] bober100 Скачать
1 | 0
Наши сериалы [ 9.06 GB ] Смотритель маяка / Сезон: 1 / Серии: 1-12 из 12 [2019 WEBRip-AVC] bober100 Скачать
2 | 0
Наши сериалы [ 25.46 GB ] Смотритель маяка / Сезон: 1 / Серии: 1-12 из 12 [2019 WEB-DL 1080p] bober100 Скачать
1 | 0
Наши сериалы [ 17.31 GB ] Смотритель маяка / Сезон: 1 / Серии: 1-12 из 12 [2019 WEB-DL 720p] bober100 Скачать
1 | 0


>> Регистрируемся здесь <<






Отзывы и комментарии о схеме читаем и пишем здесь: ---> Отзывы и комментарии о схеме

Новые благодарочки в телеграм довольных пользователей:
скриншот   скриншот   скриншот   скриншот   скриншот
    Дорогой пользователь! Огромная просьба, поблагодарите релизера, оцените раздачу и оставьте свои комментарий, если Вы скачали Смотритель маяка через торрент бесплатно! Внесите свою лепту в развитие PiratBit!
    Комментировать посты могут только пользователи прошедшие не сложную регистрацию
    Показать сообщения:    

    Смотритель маяка через торрент
    Скачать бесплатно Смотритель маяка
    Смотритель маяка скачать торрент
    Смотритель маяка смотреть онлайн
    Cкачать фильм Смотритель маяка бесплатно
    Смотритель маяка скачать торрент в хорошем качестве
    Смотритель маяка смотреть онлайн бесплатно в хорошем качестве


    Вы не можете начинать темы
    Вы не можете отвечать на сообщения
    Вы не можете редактировать свои сообщения
    Вы не можете удалять свои сообщения
    Вы не можете голосовать в опросах
    Вы не можете прикреплять файлы к сообщениям
    Вы можете скачивать файлы