Лицензия

30

iTunes

мы

iTunes

1

1 сезон

Чернобыль

1 сезон

Ральф против интернета

MVO

Покемон. Детектив Пикачу

8 сезон

Игра престолов

iTunes

1+1

ИГРА 18+

pack

ВАЖНО

!!Акция!!

Alien_RageХит недели

RePack

Resident Evil 21
pack

RePack

Metro:Exodus

!!Акция!!

Alien_Rage

RePack

fifa19

RePack

Assassins Creed: Odyssey

RePack

NEED FOR SPEED™ PAYBACK

3 сезон

9 сезон

Бесстыжие 9 сезон

Все сериалы

все сериалы на PB.wtf

RePack

FAR CRY 5
Ребята, катастрофически не хватает 2730р. для оплаты серверов за МАЙ (всвязи с блокировками трафик упал в 3 раза), 1-2р., выручайте.
  

Пилигрим (Александр Баршак) [2019, Триллер, WEB-DL 720p] [iTunes] piratbit.cc

Пилигрим через торрент piratbit.cc

Раздают: 9 [ 0 KB/s ]
Размер: 2.99 GB | Добавлен: 4 д. назад | Торрент скачан:63 раза
Скачать  

12-06-2019 03:23 Пилигрим Скачать торрент  

Пилигрим Год выпуска: 2019
Страна: Россия
Жанр: Триллер
Продолжительность: 01:37:09
Перевод: Не требуется | iTunes
Субтитры: отсутствуют

Режиссер: Александр Баршак



В ролях:

Игорь Петренко, Елена Север, Алексей Серебряков, Владимир Ильин, Татьяна Васильева, Анна Банщикова, Дмитрий Мухамадеев, Дмитрий Куличков, Сергей Беляев, Павел Кузьмин

Описание:

В жизни Миры всё замечательно: она - владелица модной галереи, дома ждёт любящий муж. Но однажды на берегу моря находят мужчину с амнезией, который помнит её имя. Никто не знает, кто он. Его нет ни в одной базе данных. Но он знает о ней то, что может знать только очень близкий человек, хотя Мира ни разу в жизни его не видела. Благополучный мир Миры начинает разрушаться, когда выясняется, что неизвестный провёл несколько лет на Ближнем Востоке и за ним идёт настоящая охота.

Качество: WEB-DL 720p
Формат: MKV

Видео: MPEG-4 AVC, 3934 Кбит/с, 1280x536
Аудио: 48 kHz, AC3 Dolby Digital, 3/2 (L,C,R,l,r) + LFE ch, ~384 kbps
скриншот  скриншот  скриншот  скриншот  

Общее
Уникальный идентификатор : 209528187721318151910547161506439880481 (0x9DA1A93D5CCDB887A265005535F5DF21)
Полное имя : C:\Piligrim.2019.WEB-DL.720p.ELEKTRI4KA.UNIONGANG.mkv
Формат : Matroska
Версия формата : Version 2
Размер файла : 2,99 Гбайт
Продолжительность : 1 ч. 37 м.
Общий поток : 4405 Кбит/сек
Название фильма : Piligrim.2019.ELEKTRI4KA.UNIONGANG.mkv
Дата кодирования : UTC 2019-06-14 18:19:28
Программа кодирования : mkvmerge v7.8.0 ('River Man') 32bit built on Apr 3 2015 12:11:22
Библиотека кодирования : libebml v1.3.1 + libmatroska v1.4.2

Видео
Идентификатор : 2
Формат : AVC
Формат/Информация : Advanced Video Codec
Профиль формата : Main@L3.1
Параметр CABAC формата : Нет
Параметр RefFrames формата : 2 кадра
Идентификатор кодека : V_MPEG4/ISO/AVC
Продолжительность : 1 ч. 37 м.
Битрейт : 3934 Кбит/сек
Ширина : 1280 пикселей
Высота : 536 пикселей
Соотношение сторон : 2,40:1
Режим частоты кадров : Постоянный
Частота кадров : 24,000 кадра/сек
Цветовое пространство : YUV
Субдискретизация насыщенности : 4:2:0
Битовая глубина : 8 бит
Тип развёртки : Прогрессивная
Бит/(Пиксели*Кадры) : 0.239
Размер потока : 2,67 Гбайт (89%)
Язык : English
Default : Да
Forced : Нет
Цветовой диапазон : Limited
Основные цвета : BT.709
Характеристики трансфера : BT.709
Коэффициенты матрицы : BT.709

Аудио
Идентификатор : 1
Формат : AC-3
Формат/Информация : Audio Coding 3
Расширение режима : CM (complete main)
Параметр Endianness формата : Big
Идентификатор кодека : A_AC3
Продолжительность : 1 ч. 37 м.
Вид битрейта : Постоянный
Битрейт : 384 Кбит/сек
Каналы : 6 каналов
Расположение каналов : Front: L C R, Side: L R, LFE
Частота : 48,0 КГц
Частота кадров : 31,250 кадров/сек (1536 spf)
Метод сжатия : С потерями
Размер потока : 267 Мбайт (9%)
Заголовок : rus.ELEKTRI4KA.UNIONGANG
Язык : Russian
Default : Да
Forced : Нет

Меню
00:00:00.000 : en:Глава 1
00:06:24.708 : en:Глава 2
00:14:19.041 : en:Глава 3
00:23:52.416 : en:Глава 4
00:30:49.206 : en:Глава 5
00:37:25.788 : en:Глава 6
00:44:26.538 : en:Глава 7
00:50:39.371 : en:Глава 8
00:58:29.162 : en:Глава 9
01:06:16.745 : en:Глава 10
01:11:36.620 : en:Глава 11
01:19:25.411 : en:Глава 12
01:24:52.577 : en:Глава 13

piratbit.cc



Скачать Пилигрим через торрент https://c.radikal.ru/c35/1906/8d/3a8938d667fc.jpg Скачать фильм Пилигрим через торрент бесплантно в хорошем качестве Описание: В жизни Миры всё замечательно: она - владелица модной галереи, дома ждёт любящий муж. Но однажды на берегу моря находят мужчину с ... 9 10 8
Info! Золотая раздача, скачанное не засчитывается.
Торрент: Зарегистрирован [2019-06-14 20:27] · скачан: 63 раз
Статус: √ проверено
Размер: 2.99 GB
Как cкачать? Как скачать Пилигрим через торрент | qTorrent

% Раздел Тема Автор DL S | L
Наши фильмы (HD, WEB-DL 720p, 1080p) [ 3.33 GB ] Пилигрим [2019 WEB-DL 1080p] bober100 Скачать
17 | 1
Наши новые фильмы 2018-2019 [ 1.45 GB ] Пилигрим [2019 WEB-DLRip] bober100 Скачать
33 | 4
Наши новые фильмы 2018-2019 [ 743 MB ] Пилигрим [2019 WEB-DLRip] bober100 Скачать
222 | 21
Фантастика [ 704 MB ] Владимир Василенко - Серый пилигрим [Чернов Александр 2018 128 kbps MP3] bober100 Скачать
2 | 0
Кино СССР [ 1.37 GB ] Капитан «Пилигрима» [1986 DVDRip-AVC] smaster Скачать
1 | 0
Фильмы 2010 [ 2.18 GB ] Скотт Пилигрим против всех / Scott Pilgrim vs. the World [2010 BDRip + Оригинал] F.U. Скачать
1 | 0
Фильмы 2014 [DVDrip, WEB-DLRip, HDrip] [ 1.46 GB ] Пилигрим: Пауло Коэльо / Não Pare na Pista: A Melhor História de Paulo Coelho [2014 биография музыка WEB-DLRip ] Ворон Скачать
1 | 0


>> Регистрируемся здесь <<






Отзывы и комментарии о схеме читаем и пишем здесь: ---> Отзывы и комментарии о схеме

Новые благодарочки в телеграм довольных пользователей:
скриншот   скриншот   скриншот   скриншот   скриншот
    Дорогой пользователь! Огромная просьба, поблагодарите релизера, оцените раздачу и оставьте свои комментарий, если Вы скачали Пилигрим через торрент бесплатно! Внесите свою лепту в развитие PiratBit!
    Комментировать посты могут только пользователи прошедшие не сложную регистрацию
    Показать сообщения:    

    Пилигрим через торрент
    Скачать бесплатно Пилигрим
    Пилигрим скачать торрент
    Пилигрим смотреть онлайн
    Cкачать фильм Пилигрим бесплатно
    Пилигрим скачать торрент в хорошем качестве
    Пилигрим смотреть онлайн бесплатно в хорошем качестве


    Вы не можете начинать темы
    Вы не можете отвечать на сообщения
    Вы не можете редактировать свои сообщения
    Вы не можете удалять свои сообщения
    Вы не можете голосовать в опросах
    Вы не можете прикреплять файлы к сообщениям
    Вы можете скачивать файлы