iTunes

1+1

iTunes

мы

iTunes

1

1 сезон

Чернобыль

1 сезон

Ральф против интернета

Лицензия

ПШазам

8 сезон

Игра престолов

Лицензия

30
pack

ВАЖНО

!!Акция!!

Alien_RageХит недели

RePack

Resident Evil 21

ИГРА 18+

pack

RePack

Metro:Exodus

!!Акция!!

Alien_Rage

RePack

fifa19

RePack

Assassins Creed: Odyssey

RePack

NEED FOR SPEED™ PAYBACK

3 сезон

9 сезон

Бесстыжие 9 сезон

Все сериалы

все сериалы на PB.wtf

RePack

FAR CRY 5
Ребята, катастрофически не хватает 2730р. для оплаты серверов за ИЮНЬ (всвязи с блокировками трафик упал в 3 раза), 1-2р., выручайте.
  

Большая маленькая ложь / Big Little Lies / Сезон: 2 / Серии: 1-5 из 7 (Жан-Марк Валле, Андреа Арнольд) [2019, Драма, криминал, детектив, WEB-DL 1080p] MVO [TVShows] piratbit.cc

Большая маленькая ложь через торрент piratbit.cc

Качают: 3 [ 0 KB/s ]
Размер: 17.05 GB | Добавлен: 4 д. назад | Торрент скачан:1 раз
Скачать  

16-06-2019 19:50 Большая маленькая ложь Скачать торрент  

Большая маленькая ложь | Big Little Lies Год выпуска: 2019
Страна: США
Жанр: Драма, криминал, детектив
Продолжительность: ~ 00:44:00
Перевод: Профессиональный (многоголосый закадровый) | TVShows
Субтитры: английские

Режиссёр: Жан-Марк Валле, Андреа Арнольд

В ролях:

Шейлин Вудли, Риз Уизерспун, Николь Кидман, Александр Скарсгард, Адам Скотт, Джеймс Таппер, Лора Дерн, Иэн Эрмитаж, Сара Бэйкер, Ларри Бейтс

Описание:

На благотворительном балу в школе происходит убийство, однако имя жертвы неизвестно. Сюжет рассказывает о нескольких месяцах, предшествовавших происшествию, и сосредоточен на пяти семьях, чьи дети ходят в один класс. Все эти семьи загадочным образом связаны с убийством…




Качество: WEB-DL 1080p
Контейнер: MKV

Видео: H.264/AVC, 1920x1080 (16:9), 23,976 кадров/сек, ~8987 Кбит/сек, ~0.181 bit/pixel
Аудио Rus: AC3, 48 kHz, 3/2 (L,C,R,l,r) + LFE ch, 448 Кбит/сек
Аудио Eng: E-AC3, 48 kHz, 3/2 (L,C,R,l,r) + LFE ch, 640 Кбит/сек
01. Что они сделали? / What Have They Done?
General
Unique ID : 74646307083625929977793499967777055429 (0x38285B1609CF1B0770F8DC5EFCE6A2C5)
Complete name : F:\Big.Little.Lies.S02.1080p.TVShows\Big.Little.Lies.S02E01.1080p.TVShows.mkv
Format : Matroska
Format version : Version 4 / Version 2
File size : 3.24 GiB
Duration : 46 min 1 s
Overall bit rate : 10.1 Mb/s
Encoded date : UTC 2019-06-13 11:34:20
Writing application : mkvmerge v33.1.0 ('Primrose') 64-bit
Writing library : libebml v1.3.7 + libmatroska v1.5.0

Video
ID : 1
Format : AVC
Format/Info : Advanced Video Codec
Format profile : High@L4
Format settings : CABAC / 4 Ref Frames
Format settings, CABAC : Yes
Format settings, ReFrames : 4 frames
Codec ID : V_MPEG4/ISO/AVC
Duration : 46 min 1 s
Bit rate mode : Constant
Bit rate : 8 987 kb/s
Nominal bit rate : 10 000 kb/s
Width : 1 920 pixels
Height : 1 080 pixels
Display aspect ratio : 16:9
Frame rate mode : Constant
Frame rate : 23.976 (24000/1001) FPS
Color space : YUV
Chroma subsampling : 4:2:0
Bit depth : 8 bits
Scan type : Progressive
Bits/(Pixel*Frame) : 0.181
Stream size : 2.89 GiB (89%)
Language : English
Default : Yes
Forced : No
Color range : Limited
Color primaries : BT.709
Transfer characteristics : BT.709
Matrix coefficients : BT.709

Audio #1
ID : 2
Format : AC-3
Format/Info : Audio Coding 3
Codec ID : A_AC3
Duration : 46 min 1 s
Bit rate mode : Constant
Bit rate : 448 kb/s
Channel(s) : 6 channels
Channel positions : Front: L C R, Side: L R, LFE
Sampling rate : 48.0 kHz
Frame rate : 31.250 FPS (1536 SPF)
Bit depth : 16 bits
Compression mode : Lossy
Stream size : 147 MiB (4%)
Title : TVShows
Language : Russian
Service kind : Complete Main
Default : Yes
Forced : Yes

Audio #2
ID : 3
Format : E-AC-3
Format/Info : Enhanced Audio Coding 3
Codec ID : A_EAC3
Duration : 46 min 1 s
Bit rate mode : Constant
Bit rate : 640 kb/s
Channel(s) : 6 channels
Channel positions : Front: L C R, Side: L R, LFE
Sampling rate : 48.0 kHz
Frame rate : 187.500 FPS (256 SPF)
Compression mode : Lossy
Delay relative to video : 6 ms
Stream size : 211 MiB (6%)
Title : Original
Language : English
Service kind : Complete Main
Default : No
Forced : No

Text
ID : 4
Format : UTF-8
Codec ID : S_TEXT/UTF8
Codec ID/Info : UTF-8 Plain Text
Duration : 45 min 50 s
Bit rate : 89 b/s
Count of elements : 895
Stream size : 30.1 KiB (0%)
Title : English
Language : English
Default : No
Forced : No
скриншот  скриншот  скриншот  скриншот  
Внимание! Раздача ведётся путём добавления новых серий; при каждом добавлении создаётся новый торрент. Чтобы начать докачку новой серии, пользователям необходимо сделать следующее:
(1) остановить скачивание,
(2) удалить старый торрент у себя из клиента (старые серии удалять не надо),
(3) скачать новый торрент и запустить его у себя в клиенте вместо старого, при этом указать клиенту путь в старую папку куда и должно происходить скачивание новых серий.

Ваш клиент при этом должен произвести хеширование (проверку) старой папки (если не производит сам - помогите ему сделать это), и будет докачивать только те серии которых у вас ещё нет. Старые серии при этом не удаляются, а продолжают раздаваться!

Eсли вы уже удалили старые серии, то предотвратить повторную закачку старых серий можно, отжав галочку в соответствующих местах при запуске нового торрента. По возможности, желательно не удалять старые серии как можно дольше чтобы релизёр не столько продолжал раздавать старые серии, а смог сконцентрироваться на новых.
piratbit.cc



Скачать Большая маленькая ложь через торрент https://i106.fastpic.ru/big/2019/0610/b8/915066611b1c2f6086125fe876468bb8.jpg Скачать фильм Большая маленькая ложь через торрент бесплантно в хорошем качестве Описание: На благотворительном балу в школе происходит убийство, однако имя жертвы неизвестно. Сюжет рассказывает о нескольких месяцах, ... 10 10 2
Торрент: Зарегистрирован [2019-07-14 13:28] · скачан: 1 раз
Статус: √ проверено
Размер: 17.05 GB
Как cкачать? Как скачать Большая маленькая ложь через торрент | qTorrent

% Раздел Тема Автор DL S | L
Зарубежные сериалы [ 9.65 GB ] Большая маленькая ложь / Big Little Lies / Сезон: 2 / Серии: 1-5 из 7 [2019 WEB-DL 720p] [MVO] killermax2013 Скачать
7 | 6


>> Регистрируемся здесь <<






Отзывы и комментарии о схеме читаем и пишем здесь: ---> Отзывы и комментарии о схеме

Новые благодарочки в телеграм довольных пользователей:
скриншот   скриншот   скриншот   скриншот   скриншот
    Дорогой пользователь! Огромная просьба, поблагодарите релизера, оцените раздачу и оставьте свои комментарий, если Вы скачали Большая маленькая ложь через торрент бесплатно! Внесите свою лепту в развитие PiratBit!
    Комментировать посты могут только пользователи прошедшие не сложную регистрацию
    Показать сообщения:    

    Большая маленькая ложь через торрент
    Скачать бесплатно Большая маленькая ложь
    Большая маленькая ложь скачать торрент
    Большая маленькая ложь смотреть онлайн
    Cкачать фильм Большая маленькая ложь бесплатно
    Большая маленькая ложь скачать торрент в хорошем качестве
    Большая маленькая ложь смотреть онлайн бесплатно в хорошем качестве


    Вы не можете начинать темы
    Вы не можете отвечать на сообщения
    Вы не можете редактировать свои сообщения
    Вы не можете удалять свои сообщения
    Вы не можете голосовать в опросах
    Вы не можете прикреплять файлы к сообщениям
    Вы можете скачивать файлы