iTunes

1+1

iTunes

мы

iTunes

1

1 сезон

Чернобыль

1 сезон

Ральф против интернета

Лицензия

ПШазам

8 сезон

Игра престолов

Лицензия

30
pack

ВАЖНО

!!Акция!!

Alien_RageХит недели

RePack

Resident Evil 21

ИГРА 18+

pack

RePack

Metro:Exodus

!!Акция!!

Alien_Rage

RePack

fifa19

RePack

Assassins Creed: Odyssey

RePack

NEED FOR SPEED™ PAYBACK

3 сезон

9 сезон

Бесстыжие 9 сезон

Все сериалы

все сериалы на PB.wtf

RePack

FAR CRY 5
Ребята, катастрофически не хватает 2730р. для оплаты серверов за ИЮНЬ (всвязи с блокировками трафик упал в 3 раза), 1-2р., выручайте.
  

Малыш Кид / The Kid (Винсент Д Онофрио) [2019, вестерн, приключения, BDRip 1080p] DUB [iTunes] +MVO [HDRezka Studio] piratbit.cc

Малыш Кид через торрент piratbit.cc

Раздают: 7 [ 343 KB/s ]
Размер: 10.39 GB | Добавлен: 1 мес. назад | Торрент скачан:92 раза
Скачать  

18-06-2019 16:14 Малыш Кид Скачать торрент  

Малыш Кид / The Kid
Год выпуска: 2019
Страна: США
Жанр: вестерн, приключения
Продолжительность: 01:39:50
Перевод:

Дублированный | iTunes
Профессиональный (многоголосый) | HDRezka Studio

Субтитры: Английские (Full)

Режиссер: Винсент Д Онофрио

rating

В ролях:

Джейк Шур, Крис Пратт, Итан Хоук, Винсент Д Онофрио, Дэйн ДеХаан, Адам Болдуин, Лейла Джордж, Тейт Флетчер, Кит Джардин, Ben Dickey

Описание:

История подростка Билли, который становится невольным свидетелем кровавой войны между легендарным бандитом Дикого Запада Билли Кидом по кличке Малыш Кид и жестоким шерифом Пэтом Гарреттом. Подросток прошел через длинную череду предательств родственников, гибель отца, исчезновение сестры и только встреча с кровавым тезкой Малышом Кидом позволит найти выход из этой ситуации. Но на их пути встаёт местный шериф...

Качество: BDRip 1080p
Формат: MKV

Видео: 1920x806 (2,40:1), 23,976 fps, MPEG-4 AVC ~ 13,7 Мbps avg, 0.369 bit/pixel
Аудио#1: AC3, 48 kHz, 6 ch, ~384.00 kbps avg | русский | iTunes | RUS |
Аудио#2: AC3, 48 kHz, 2 ch, ~192.00 kbps avg | русский | HDRezka Studio | RUS |
Аудио#3: AC3, 48 kHz, 6 ch, ~640.00.00 kbps avg | английский | Оригинал |
скриншот  скриншот  скриншот  скриншот  скриншот  

Общее
Уникальный идентификатор : 254750135479078774007003473851838239393 (0xBFA71767AACF2B27D4411CACBA4E12A1)
Полное имя : The.Kid.2019.1080p.Blu.Ray.DD5.1.x264.mkv
Формат : Matroska
Версия формата : Version 4 / Version 2
Размер файла : 10,4 Гбайт
Продолжительность : 1 ч. 39 м.
Общий поток : 14,9 Мбит/сек
Название фильма : Малыш Кид / The Kid (2019)
Дата кодирования : UTC 2019-06-18 15:22:50
Программа кодирования : mkvmerge v27.0.0 ('Metropolis') 64-bit
Библиотека кодирования : libebml v1.3.6 + libmatroska v1.4.9
Обложка : Yes
Attachments : cover.jpg

Видео
Идентификатор : 1
Формат : AVC
Формат/Информация : Advanced Video Codec
Профиль формата : High@L4.1
Настройки формата : CABAC / 5 Ref Frames
Параметр CABAC формата : Да
Параметр RefFrames формата : 5 кадров
Идентификатор кодека : V_MPEG4/ISO/AVC
Продолжительность : 1 ч. 39 м.
Битрейт : 13,7 Мбит/сек
Ширина : 1920 пикселей
Высота : 806 пикселей
Соотношение сторон : 2,40:1
Режим частоты кадров : Постоянный
Частота кадров : 23,976 (24000/1001) кадра/сек
Цветовое пространство : YUV
Субдискретизация насыщенности : 4:2:0
Битовая глубина : 8 бит
Тип развёртки : Прогрессивная
Бит/(Пиксели*Кадры) : 0.369
Размер потока : 9,54 Гбайт (92%)
Заголовок : playHD
Библиотека кодирования : x264 core 157 r2969 d4099dd
Настройки программы : cabac=1 / ref=5 / deblock=1:-3:-3 / analyse=0x3:0x133 / me=umh / subme=10 / psy=1 / psy_rd=1.00:0.00 / mixed_ref=1 / me_range=32 / chroma_me=1 / trellis=2 / 8x8dct=1 / cqm=0 / deadzone=21,11 / fast_pskip=0 / chroma_qp_offset=-2 / threads=24 / lookahead_threads=4 / sliced_threads=0 / nr=0 / decimate=0 / interlaced=0 / bluray_compat=0 / constrained_intra=0 / bframes=9 / b_pyramid=2 / b_adapt=2 / b_bias=0 / direct=3 / weightb=1 / open_gop=0 / weightp=2 / keyint=250 / keyint_min=23 / scenecut=40 / intra_refresh=0 / rc_lookahead=60 / rc=crf / mbtree=0 / crf=16.2 / qcomp=0.60 / qpmin=0 / qpmax=69 / qpstep=4 / vbv_maxrate=62500 / vbv_bufsize=78125 / crf_max=0.0 / nal_hrd=none / filler=0 / ip_ratio=1.30 / pb_ratio=1.20 / aq=3:0.85 / zones=134107,143616,b=0.7
Язык : English
Default : Да
Forced : Нет

Аудио #1
Идентификатор : 2
Формат : AC-3
Формат/Информация : Audio Coding 3
Идентификатор кодека : A_AC3
Продолжительность : 1 ч. 39 м.
Вид битрейта : Постоянный
Битрейт : 384 Кбит/сек
Каналы : 6 каналов
Расположение каналов : Front: L C R, Side: L R, LFE
Частота : 48,0 КГц
Частота кадров : 31,250 кадров/сек (1536 SPF)
Битовая глубина : 16 бит
Метод сжатия : С потерями
Размер потока : 274 Мбайт (3%)
Заголовок : iTunes
Язык : Russian
Default : Да
Forced : Нет

Аудио #2
Идентификатор : 3
Формат : AC-3
Формат/Информация : Audio Coding 3
Идентификатор кодека : A_AC3
Продолжительность : 1 ч. 39 м.
Вид битрейта : Постоянный
Битрейт : 192 Кбит/сек
Каналы : 2 канала
Расположение каналов : Front: L R
Частота : 48,0 КГц
Частота кадров : 31,250 кадров/сек (1536 SPF)
Битовая глубина : 16 бит
Метод сжатия : С потерями
Размер потока : 137 Мбайт (1%)
Заголовок : MVO [HDRezka Studio]
Язык : Russian
Default : Нет
Forced : Нет

Аудио #3
Идентификатор : 4
Формат : AC-3
Формат/Информация : Audio Coding 3
Идентификатор кодека : A_AC3
Продолжительность : 1 ч. 39 м.
Вид битрейта : Постоянный
Битрейт : 640 Кбит/сек
Каналы : 6 каналов
Расположение каналов : Front: L C R, Side: L R, LFE
Частота : 48,0 КГц
Частота кадров : 31,250 кадров/сек (1536 SPF)
Битовая глубина : 16 бит
Метод сжатия : С потерями
Размер потока : 457 Мбайт (4%)
Заголовок : Original
Язык : English
Default : Нет
Forced : Нет

Текст
Идентификатор : 5
Формат : UTF-8
Идентификатор кодека : S_TEXT/UTF8
Идентификатор кодека/Информация : UTF-8 Plain Text
Продолжительность : 1 ч. 32 м.
Битрейт : 46 бит/сек
ElementCount : 951
Размер потока : 31,7 Кбайт (0%)
Язык : English
Default : Нет
Forced : Нет

Меню
00:00:00.000 : en:00:00:00.000
00:07:40.627 : en:00:07:40.627
00:16:10.344 : en:00:16:10.344
00:24:21.293 : en:00:24:21.293
00:31:27.010 : en:00:31:27.010
00:40:03.109 : en:00:40:03.109
00:48:02.880 : en:00:48:02.880
00:56:48.071 : en:00:56:48.071
01:04:40.001 : en:01:04:40.001
01:12:02.318 : en:01:12:02.318
01:20:14.935 : en:01:20:14.935
01:27:23.822 : en:01:27:23.822

piratbit.cc



Скачать Малыш Кид через торрент https://i110.fastpic.ru/big/2019/0603/a4/3ff8606f833b591c7e36d4c9a8640ea4.png Скачать фильм Малыш Кид через торрент бесплантно в хорошем качестве Описание: История подростка Билли, который становится невольным свидетелем кровавой войны между легендарным бандитом Дикого Запада Билли ... 10 10 5
Торрент: Зарегистрирован [2019-06-18 16:14] · скачан: 92 раз
Статус: √ проверено
Размер: 10.39 GB
Как cкачать? Как скачать Малыш Кид через торрент | qTorrent

% Раздел Тема Автор DL S | L
Фильмы 2019 [DVDrip, WEB-DLRip, HDrip] (DUB, MVO) [ 1.42 GB ] Малыш Кид / The Kid [2019 BDRip] - Twi7ter Скачать
82 | 3
Фильмы 2019 [DVDrip, WEB-DLRip, HDrip] (DUB, MVO) [ 1.61 GB ] Малыш Кид / The Kid [2019 BDRip-AVC] Dub - ExKinoRay Enigma2010 Скачать
21 | 1
# Фильмы (Blu-ray, BD-Remux, HDDVD) [ 18.98 GB ] Малыш Кид / The Kid [2019 биография BD Remux ()] Бумер Скачать
3 | 1
Фильмы [HD 720p, 1080p] (Хороший звук DUB, MVO) [ 4.45 GB ] Малыш Кид / The Kid [2019 BDRip 720p] +MVO [HDRezka Studio] bober100 Скачать
11 | 0
T Фильмы 2019 [DVDrip, WEB-DLRip, HDrip] (DUB, MVO) [ 1.79 GB ] Малыш Кид / The Kid [2019 BDRip-AVC] MVO [HDRezka Studio] - ExKinoRay Enigma2010 Скачать
54 | 1
Фильмы 2019 [DVDrip, WEB-DLRip, HDrip] (DUB, MVO) [ 2.13 GB ] Малыш Кид / The Kid [2019 BDRip-AVC] bober100 Скачать
7 | 0
Фильмы 2019 [DVDrip, WEB-DLRip, HDrip] (DUB, MVO) [ 1.41 GB ] Малыш Кид / The Kid [2019 BDRip] bober100 Скачать
6 | 0


>> Регистрируемся здесь <<






Отзывы и комментарии о схеме читаем и пишем здесь: ---> Отзывы и комментарии о схеме

Новые благодарочки в телеграм довольных пользователей:
скриншот   скриншот   скриншот   скриншот   скриншот
    Дорогой пользователь! Огромная просьба, поблагодарите релизера, оцените раздачу и оставьте свои комментарий, если Вы скачали Малыш Кид через торрент бесплатно! Внесите свою лепту в развитие PiratBit!
    Комментировать посты могут только пользователи прошедшие не сложную регистрацию
    Показать сообщения:    

    Малыш Кид через торрент
    Скачать бесплатно Малыш Кид
    Малыш Кид скачать торрент
    Малыш Кид смотреть онлайн
    Cкачать фильм Малыш Кид бесплатно
    Малыш Кид скачать торрент в хорошем качестве
    Малыш Кид смотреть онлайн бесплатно в хорошем качестве


    Вы не можете начинать темы
    Вы не можете отвечать на сообщения
    Вы не можете редактировать свои сообщения
    Вы не можете удалять свои сообщения
    Вы не можете голосовать в опросах
    Вы не можете прикреплять файлы к сообщениям
    Вы можете скачивать файлы