iTunes

1+1

iTunes

мы

iTunes

1

1 сезон

Чернобыль

1 сезон

Ральф против интернета

Лицензия

ПШазам

8 сезон

Игра престолов

Лицензия

30
pack

ВАЖНО

!!Акция!!

Alien_RageХит недели

RePack

Resident Evil 21

ИГРА 18+

pack

RePack

Metro:Exodus

!!Акция!!

Alien_Rage

RePack

fifa19

RePack

Assassins Creed: Odyssey

RePack

NEED FOR SPEED™ PAYBACK

3 сезон

9 сезон

Бесстыжие 9 сезон

Все сериалы

все сериалы на PB.wtf

RePack

FAR CRY 5
Ребята, катастрофически не хватает 2730р. для оплаты серверов за ИЮНЬ (всвязи с блокировками трафик упал в 3 раза), 1-2р., выручайте.
  

Криптон / Krypton / Сезон: 2 / Серии: 1-5 из 10 (Метин Хусейн, Джулиус Рамсей, Марк Роскин) [2019, Фантастика, боевик, драма, приключения, WEB-DLRip] [MVO] (LostFilm) piratbit.cc

Криптон через торрент piratbit.cc

Раздают: 5 [ 0 KB/s ] Качают: 4 [ 0 KB/s ]
Размер: 2.99 GB | Добавлен: 4 д. назад | Торрент скачан:7 раз
Скачать  

29-06-2019 10:03 Криптон Скачать торрент  


Криптон | Krypton
Год выпуска: 2019
Страна: США
Жанр: Фантастика, боевик, драма, приключения
Продолжительность: ~ 00:42:00
Перевод: Профессиональный (многоголосый закадровый) | LostFilm
Режиссёр: Метин Хусейн, Джулиус Рамсей, Марк Роскин
В ролях: Камерон Каффе, Джорджина Кэмпбелл, Йен МакЭлхинни, Эллиот Кауэн, Энн Огбомо, Расмус Хардайкер, Уоллис Дэй, Аарон Пьер, Гордон Александр
Описание: В центре фантастического сериала — события, происходившие на родной планете мальчика с необычными способностями, который стал Суперменом. Действие разворачивается за несколько десятилетий до гибели планеты. Дед Супермена, всю жизнь веривший в равенство всех жителей планеты Криптон, решает вести непримиримую борьбу с беспорядками и очистить славное имя Элов…


Качество: WEB-DLRip
Формат: AVI
Видео: XviD, 720x400 (16:9), 23.976 кадров/сек, 1600 Кбит/сек
Аудио Rus: AC3, 48,0 kHz, 2 ch, 192 Кбит/сек | LostFilm
Аудио Eng: AC3, 48,0 kHz, 2 ch, 192 Кбит/сек
Субтитры: Русские, английские
Реклама: Отсутствует
• Очистка от рекламы kogesan

  • 01. В световых годах от дома / Light-Years from Home
  • 02. Призрак в огне / Ghost in the Fire
  • 03. Стремление к власти / Will to Power

  • Общее
    Полное имя : E:\Krypton.S02E01.WEB-DLRip.RGzsRutracker.[Wentworth_Miller].avi
    Формат : AVI
    Формат/Информация : Audio Video Interleave
    Размер файла : 610 Мбайт
    Продолжительность : 42 м. 38 с.
    Общий поток : 1998 Кбит/сек
    Название фильма : Krypton 02x01 (В световых годах от дома / Light-Years from Home) - Release by Wentworth_Miller
    Программа кодирования : VirtualDubMod 1.5.10.3 | www.virtualdub-fr.org || (build 2550/release)

    Видео
    Идентификатор : 0
    Формат : MPEG-4 Visual
    Профиль формата : Advanced Simple@L5
    Настройки формата : BVOP1
    Параметр BVOP формата : 1
    Параметр QPel формата : Нет
    Параметр GMC формата : Без точки перехода
    Параметр матрицы формата : Default (MPEG)
    Идентификатор кодека : XVID
    Идентификатор кодека/Подсказка : XviD
    Продолжительность : 42 м. 38 с.
    Битрейт : 1600 Кбит/сек
    Ширина : 720 пикселей
    Высота : 400 пикселей
    Соотношение сторон : 16:9
    Частота кадров : 23,976 (24000/1001) кадра/сек
    Цветовое пространство : YUV
    Субдискретизация насыщенности : 4:2:0
    Битовая глубина : 8 бит
    Тип развёртки : Прогрессивная
    Метод сжатия : С потерями
    Бит/(Пиксели*Кадры) : 0.232
    Размер потока : 488 Мбайт (80%)
    Библиотека кодирования : XviD 67

    Аудио #1
    Идентификатор : 1
    Формат : AC-3
    Формат/Информация : Audio Coding 3
    Коммерческое название : Dolby Digital
    Идентификатор кодека : 2000
    Продолжительность : 42 м. 38 с.
    Вид битрейта : Постоянный
    Битрейт : 192 Кбит/сек
    Каналы : 2 канала
    ChannelLayout : L R
    Частота : 48,0 КГц
    Частота кадров : 31,250 кадров/сек (1536 SPF)
    Битовая глубина : 16 бит
    Метод сжатия : С потерями
    Размер потока : 58,6 Мбайт (10%)
    Выравнивание : Разделение по промежуткам
    Продолжительность промежутка : 42 мс. (1,00 видеокадр)
    Время предзагрузки промежутка : 500 мс.
    ServiceKind/String : Complete Main

    Аудио #2
    Идентификатор : 2
    Формат : AC-3
    Формат/Информация : Audio Coding 3
    Коммерческое название : Dolby Digital
    Идентификатор кодека : 2000
    Продолжительность : 42 м. 38 с.
    Вид битрейта : Постоянный
    Битрейт : 192 Кбит/сек
    Каналы : 2 канала
    ChannelLayout : L R
    Частота : 48,0 КГц
    Частота кадров : 31,250 кадров/сек (1536 SPF)
    Битовая глубина : 16 бит
    Метод сжатия : С потерями
    Размер потока : 58,6 Мбайт (10%)
    Выравнивание : Разделение по промежуткам
    Продолжительность промежутка : 42 мс. (1,00 видеокадр)
    Время предзагрузки промежутка : 500 мс.
    ServiceKind/String : Complete Main

    скриншот  скриншот  скриншот  

    Внимание! Раздача ведётся путём добавления новых серий; при каждом добавлении создаётся новый торрент. Чтобы начать докачку новой серии, пользователям необходимо сделать следующее:
    (1) остановить скачивание,
    (2) удалить старый торрент у себя из клиента (старые серии удалять не надо),
    (3) скачать новый торрент и запустить его у себя в клиенте вместо старого, при этом указать клиенту путь в старую папку куда и должно происходить скачивание новых серий.

    Ваш клиент при этом должен произвести хеширование (проверку) старой папки (если не производит сам - помогите ему сделать это), и будет докачивать только те серии которых у вас ещё нет. Старые серии при этом не удаляются, а продолжают раздаваться!

    Eсли вы уже удалили старые серии, то предотвратить повторную закачку старых серий можно, отжав галочку в соответствующих местах при запуске нового торрента. По возможности, желательно не удалять старые серии как можно дольше чтобы релизёр не столько продолжал раздавать старые серии, а смог сконцентрироваться на новых.

    piratbit.cc



    Скачать Криптон через торрент http://img15.lostpic.net/2019/06/15/7e6d939284067bf20097aa1857555f93.jpg Скачать фильм Криптон через торрент бесплантно в хорошем качестве Описание: В центре фантастического сериала — события, происходившие на родной планете мальчика с необычными способностями, который стал ... 3 10 1
    Торрент: Зарегистрирован [2019-07-14 15:32] · скачан: 7 раз
    Статус: √ проверено
    Размер: 2.99 GB
    Как cкачать? Как скачать Криптон через торрент | qTorrent

    % Раздел Тема Автор DL S | L
    Зарубежные сериалы [ 6.33 GB ] Криптон / Krypton / Сезон: 2 / Серии: 1-5 из 10 [2019 WEB-DL 720p] MVO [Lostfilm] bober100 Скачать
    6 | 7
    Зарубежные сериалы [ 14.31 GB ] Криптон / Krypton / Сезон: 2 / Серии: 1-5 из 10 [2019 WEB-DL 1080p] MVO [TVShows] bober100 Скачать
    1 | 1


    >> Регистрируемся здесь <<






    Отзывы и комментарии о схеме читаем и пишем здесь: ---> Отзывы и комментарии о схеме

    Новые благодарочки в телеграм довольных пользователей:
    скриншот   скриншот   скриншот   скриншот   скриншот
      Дорогой пользователь! Огромная просьба, поблагодарите релизера, оцените раздачу и оставьте свои комментарий, если Вы скачали Криптон через торрент бесплатно! Внесите свою лепту в развитие PiratBit!
      Комментировать посты могут только пользователи прошедшие не сложную регистрацию
      Показать сообщения:    

      Криптон через торрент
      Скачать бесплатно Криптон
      Криптон скачать торрент
      Криптон смотреть онлайн
      Cкачать фильм Криптон бесплатно
      Криптон скачать торрент в хорошем качестве
      Криптон смотреть онлайн бесплатно в хорошем качестве


      Вы не можете начинать темы
      Вы не можете отвечать на сообщения
      Вы не можете редактировать свои сообщения
      Вы не можете удалять свои сообщения
      Вы не можете голосовать в опросах
      Вы не можете прикреплять файлы к сообщениям
      Вы можете скачивать файлы