iTunes

1+1

iTunes

мы

iTunes

1

iTunes

Чернобыль

1 сезон

Ральф против интернета

Лицензия

ПШазам

Лицензия

Игра престолов

Лицензия

30
pack

ВАЖНО

!!Акция!!

Alien_RageХит недели

RePack

Resident Evil 21

ИГРА 18+

pack

RePack

Metro:Exodus

!!Акция!!

Alien_Rage

RePack

fifa19

RePack

Assassins Creed: Odyssey

RePack

NEED FOR SPEED™ PAYBACK

3 сезон

9 сезон

Бесстыжие 9 сезон

Все сериалы

все сериалы на PB.wtf

RePack

FAR CRY 5
Ребята, катастрофически не хватает 7730р. для оплаты серверов за ИЮЛЬ (всвязи с блокировками трафик упал в 3 раза), 1-2р., выручайте.
  

Гранд Отель / Grand Hotel / Сезон: 1 / Серии: 1-8 из 13 (Билл Д’Элиа, Ева Лонгория, Кен Олин) [2019, драма, WEBRip 1080p] [MVO] (TVShows) piratbit.cc

Гранд Отель через торрент piratbit.cc

Размер: 24.94 GB | Добавлен: 10 д. назад | Торрент скачан:0 раз
Скачать  

06-07-2019 12:37 Гранд Отель Скачать торрент  

Гранд Отель | Grand Hotel
Год выпуска: 2019
Страна: США
Жанр: драма
Продолжительность: ~ 00:43:00

Перевод: Профессиональный (многоголосый закадровый) TVShows

Режиссёр: Билл Д’Элиа, Ева Лонгория, Кен Олин

В ролях: Демиан Бишир, Роселин Санчес, Дениза Тонтц, Венди Рэкуэл Робинсон, Крис Уоррен, Брайан Алан Крэйг, Жустина Адорно, Ретт Рамирез, Линкольн Юн и др.
Описание: В центре внимания оказывается влиятельная семья Мендоса, которая проживает на Майами Бич. Именно здесь они решили открыть собственное дело и построили отель, который в скором назвали Гранд. Данное место славится своей изысканностью и престижным окружением. Здесь отдыхали лишь богачи и влиятельные люди, поэтому Мендоса стали окружены элитным обществом. Главой семейства является мужчина по имени Сантьяго, он делал все возможное, чтобы его семья ни в чём не нуждалась. Однако многие тайны скрыты в отеле Гранд. Сантьяго понимает, что где есть деньги и крупные связи, всегда найдутся места для конфликтов и опасные ситуации. Поэтому, когда в отеле происходят страшные события, то Сантьяго пытается скрыть их от общества. Внезапно в отеле Гранд устраивается молодой парень по имени Хулио. Он поступил на работу официанта и пытается присмотреться к каждому человеку, кто находится в отеле, чтобы выяснить, куда делась его родная сестра. По предварительным данным сестра пропала именно из отеля, поэтому Хулио пытается выяснить тайну данного места.
rating


Качество: WEBRip 1080p
Контейнер: MKV
Видео: MPEG-4 AVC, 1920x1080, 23.976 fps, ~ 10000Kbps
Аудио: Русский (AC3, 6 ch, 384 Кбит/с) 48 КГц
Аудио 2: английский (AC3, 6 ch, 640 Кбит/с)
Субтитры: английские
Реклама: Отсутствует
General
Unique ID : 218012157119721736002245186321474394432 (0xA4039D39D59A56D5EB828043EF0C1940)
Complete name : C:\Users\Desktop\Grand.Hotel.S01.1080p.TVShows\Grand.Hotel.S01E01.1080p.TVShows.mkv
Format : Matroska
Format version : Version 4 / Version 2
File size : 3.16 GiB
Duration : 43 min 1 s
Overall bit rate : 10.5 Mb/s
Encoded date : UTC 2019-06-21 11:43:15
Writing application : mkvmerge v33.1.0 ('Primrose') 64-bit
Writing library : libebml v1.3.7 + libmatroska v1.5.0

Video
ID : 1
Format : AVC
Format/Info : Advanced Video Codec
Format profile : High@L4
Format settings : CABAC / 4 Ref Frames
Format settings, CABAC : Yes
Format settings, ReFrames : 4 frames
Codec ID : V_MPEG4/ISO/AVC
Duration : 43 min 1 s
Bit rate mode : Constant
Bit rate : 10 000 kb/s
Width : 1 920 pixels
Height : 1 080 pixels
Display aspect ratio : 16:9
Frame rate mode : Constant
Frame rate : 23.976 (24000/1001) FPS
Color space : YUV
Chroma subsampling : 4:2:0
Bit depth : 8 bits
Scan type : Progressive
Bits/(Pixel*Frame) : 0.201
Stream size : 2.97 GiB (94%)
Language : English
Default : Yes
Forced : No
Color range : Limited
Color primaries : BT.709
Transfer characteristics : BT.709
Matrix coefficients : BT.709

Audio #1
ID : 2
Format : AC-3
Format/Info : Audio Coding 3
Codec ID : A_AC3
Duration : 43 min 1 s
Bit rate mode : Constant
Bit rate : 384 kb/s
Channel(s) : 6 channels
Channel positions : Front: L C R, Side: L R, LFE
Sampling rate : 48.0 kHz
Frame rate : 31.250 FPS (1536 SPF)
Bit depth : 16 bits
Compression mode : Lossy
Stream size : 118 MiB (4%)
Title : TVShows
Language : Russian
Service kind : Complete Main
Default : Yes
Forced : Yes

Audio #2
ID : 3
Format : E-AC-3
Format/Info : Enhanced Audio Coding 3
Codec ID : A_EAC3
Duration : 43 min 1 s
Bit rate mode : Constant
Bit rate : 256 kb/s
Channel(s) : 6 channels
Channel positions : Front: L C R, Side: L R, LFE
Sampling rate : 48.0 kHz
Frame rate : 187.500 FPS (256 SPF)
Compression mode : Lossy
Stream size : 78.8 MiB (2%)
Title : Original
Language : English
Service kind : Complete Main
Default : No
Forced : No

Text
ID : 4
Format : UTF-8
Codec ID : S_TEXT/UTF8
Codec ID/Info : UTF-8 Plain Text
Duration : 42 min 48 s
Bit rate : 90 b/s
Count of elements : 1049
Stream size : 28.3 KiB (0%)
Title : English
Language : English
Default : No
Forced : No
скриншот  скриншот  скриншот  
Внимание! Раздача ведётся путём добавления новых серий; при каждом добавлении создаётся новый торрент.
Чтобы начать докачку новой серии, пользователям необходимо сделать следующее:
1. Остановить скачивание.
2. Удалить старый торрент у себя из клиента (старые серии удалять не надо).
3. Скачать новый торрент и запустить его у себя в клиенте вместо старого, при этом указать клиенту путь в старую папку куда и должно происходить скачивание новых серий.
Ваш клиент при этом должен произвести хеширование (проверку) старой папки (если не производит сам - помогите ему сделать это), и будет докачивать только те серии которых у вас ещё нет. Старые серии при этом не удаляются, а продолжают раздаваться!
Eсли вы уже удалили старые серии, то предотвратить повторную закачку старых серий можно, отжав галочку в соответствующих местах при запуске нового торрента.
piratbit.cc



Скачать Гранд Отель через торрент https://d.radikal.ru/d01/1906/e3/fb7736461dac.jpg Скачать фильм Гранд Отель через торрент бесплантно в хорошем качестве Описание: В центре внимания оказывается влиятельная семья Мендоса, которая проживает на Майами Бич. Именно здесь они решили открыть ... 10 10 3
Торрент: Зарегистрирован [2019-08-08 13:33] · скачан: 0 раз
Статус: √ проверено
Размер: 24.94 GB
Как cкачать? Как скачать Гранд Отель через торрент | qTorrent


>> Регистрируемся здесь <<






Отзывы и комментарии о схеме читаем и пишем здесь: ---> Отзывы и комментарии о схеме

Новые благодарочки в телеграм довольных пользователей:
скриншот   скриншот   скриншот   скриншот   скриншот
    Дорогой пользователь! Огромная просьба, поблагодарите релизера, оцените раздачу и оставьте свои комментарий, если Вы скачали Гранд Отель через торрент бесплатно! Внесите свою лепту в развитие PiratBit!
    Комментировать посты могут только пользователи прошедшие не сложную регистрацию
    Показать сообщения:    

    Гранд Отель через торрент
    Скачать бесплатно Гранд Отель
    Гранд Отель скачать торрент
    Гранд Отель смотреть онлайн
    Cкачать фильм Гранд Отель бесплатно
    Гранд Отель скачать торрент в хорошем качестве
    Гранд Отель смотреть онлайн бесплатно в хорошем качестве


    Вы не можете начинать темы
    Вы не можете отвечать на сообщения
    Вы не можете редактировать свои сообщения
    Вы не можете удалять свои сообщения
    Вы не можете голосовать в опросах
    Вы не можете прикреплять файлы к сообщениям
    Вы можете скачивать файлы