iTunes

1+1

iTunes

мы

iTunes

1

1 сезон

Чернобыль

1 сезон

Ральф против интернета

Лицензия

ПШазам

8 сезон

Игра престолов

Лицензия

30
pack

ВАЖНО

!!Акция!!

Alien_RageХит недели

RePack

Resident Evil 21

ИГРА 18+

pack

RePack

Metro:Exodus

!!Акция!!

Alien_Rage

RePack

fifa19

RePack

Assassins Creed: Odyssey

RePack

NEED FOR SPEED™ PAYBACK

3 сезон

9 сезон

Бесстыжие 9 сезон

Все сериалы

все сериалы на PB.wtf

RePack

FAR CRY 5
Ребята, катастрофически не хватает 2730р. для оплаты серверов за ИЮНЬ (всвязи с блокировками трафик упал в 3 раза), 1-2р., выручайте.
  

Рокетмен / Rocketman (Декстер Флетчер) [2019, Мюзикл, драма, биография, музыка, WEBRip 1080p] MVO [HDRezka Studio] piratbit.cc

Рокетмен через торрент piratbit.cc

Раздают: 11 [ 428 KB/s ] Качают: 2 [ 3 MB/s ]
Размер: 11.66 GB | Добавлен: 7 д. назад | Торрент скачан:109 раз
Скачать  

11-07-2019 01:32 Рокетмен Скачать торрент  

Рокетмен / Rocketman
Год выпуска: 2019
Страна: Великобритания США Канада
Жанр: Мюзикл, драма, биография, музыка
Продолжительность: 02:00:19
Перевод: Профессиональный (многоголосый) | HDRezka Studio
Субтитры: корейские (вшитые)

Режиссер: Декстер Флетчер

rating скриншот  

В ролях: Тэрон Эджертон, Джейми Белл, Ричард Мэдден, Брайс Даллас Ховард, Джемма Джонс, Стивен Макинтош, Том Беннетт, Мэтью Иллесли, Кит Коннор, Чарли Роу

Описание: История превращения застенчивого парня Реджинальда Дуайта, талантливейшего пианиста из маленького городка, в суперзвезду и культовую фигуру мировой поп-музыки Элтона Джона.

Качество: WEBRip 1080p
Формат: MKV

Видео: MPEG-4 AVC, 13500 Кбит/с, 1920x800, 23.976 Кадр/с
Аудио#1: Русский (AC3, 2 ch, 192 Кбит/с)
Аудио#2: английский (AC3, 2 ch, 192 Кбит/с)
скриншот  скриншот  скриншот  скриншот  скриншот  

Общее
Уникальный идентификатор : 52610864050729005106111283583630796688 (0x27947BDD6EAA14D0A6E03755D92D6790)
Полное имя : D:\Rocketman.2019.1080p.WEBRip.mkv
Формат : Matroska
Версия формата : Version 4 / Version 2
Размер файла : 11,7 Гбайт
Продолжительность : 2 ч. 0 м.
Общий поток : 13,9 Мбит/сек
Дата кодирования : UTC 2019-07-10 22:22:03
Программа кодирования : mkvmerge v28.0.0 ('Voice In My Head') 64-bit
Библиотека кодирования : libebml v1.3.6 + libmatroska v1.4.9

Видео
Идентификатор : 1
Формат : AVC
Формат/Информация : Advanced Video Codec
Профиль формата : High@L4.1
Параметр CABAC формата : Да
Параметр RefFrames формата : 4 кадра
Идентификатор кодека : V_MPEG4/ISO/AVC
Продолжительность : 2 ч. 0 м.
Битрейт : 13,5 Мбит/сек
Ширина : 1920 пикселей
Высота : 800 пикселей
Соотношение сторон : 2,40:1
Режим частоты кадров : Постоянный
Частота кадров : 23,976 (24000/1001) кадра/сек
Цветовое пространство : YUV
Субдискретизация насыщенности : 4:2:0
Битовая глубина : 8 бит
Тип развёртки : Прогрессивная
Бит/(Пиксели*Кадры) : 0.359
Размер потока : 11,1 Гбайт (95%)
Язык : English
Default : Да
Forced : Нет
Цветовой диапазон : Limited
Основные цвета : BT.709
Характеристики трансфера : BT.709
Коэффициенты матрицы : BT.709

Аудио #1
Идентификатор : 2
Формат : AC-3
Формат/Информация : Audio Coding 3
Расширение режима : CM (complete main)
Параметр Endianness формата : Big
Идентификатор кодека : A_AC3
Продолжительность : 2 ч. 0 м.
Вид битрейта : Постоянный
Битрейт : 192 Кбит/сек
Каналы : 2 канала
Расположение каналов : Front: L R
Частота : 48,0 КГц
Частота кадров : 31,250 кадров/сек (1536 spf)
Метод сжатия : С потерями
Размер потока : 165 Мбайт (1%)
Язык : Russian
Default : Да
Forced : Нет

Аудио #2
Идентификатор : 3
Формат : AC-3
Формат/Информация : Audio Coding 3
Расширение режима : CM (complete main)
Параметр Endianness формата : Big
Идентификатор кодека : A_AC3
Продолжительность : 2 ч. 0 м.
Вид битрейта : Постоянный
Битрейт : 192 Кбит/сек
Каналы : 2 канала
Расположение каналов : Front: L R
Частота : 48,0 КГц
Частота кадров : 31,250 кадров/сек (1536 spf)
Метод сжатия : С потерями
Задержка видео : 60 мс.
Размер потока : 165 Мбайт (1%)
Заголовок : Stereo
Язык : English
Default : Нет
Forced : Нет

piratbit.cc



Скачать Рокетмен через торрент https://d.radikal.ru/d03/1907/9c/852db429e104.jpg Скачать фильм Рокетмен через торрент бесплантно в хорошем качестве Описание: История превращения застенчивого парня Реджинальда Дуайта, талантливейшего пианиста из маленького городка, в суперзвезду и ... 10 10 5
Торрент: Зарегистрирован [2019-07-11 02:26] · скачан: 109 раз
Статус: T временная
Размер: 11.66 GB
Как cкачать? Как скачать Рокетмен через торрент | qTorrent

% Раздел Тема Автор DL S | L
T Фильмы 2019 [DVDrip, WEB-DLRip, HDrip] (DUB, MVO) [ 1.46 GB ] Рокетмен / Rocketman [2019 Мюзикл биография музыка WEBRip] MVO [HDRezka Studio] bober100 Скачать
24 | 0


>> Регистрируемся здесь <<






Отзывы и комментарии о схеме читаем и пишем здесь: ---> Отзывы и комментарии о схеме

Новые благодарочки в телеграм довольных пользователей:
скриншот   скриншот   скриншот   скриншот   скриншот
    Дорогой пользователь! Огромная просьба, поблагодарите релизера, оцените раздачу и оставьте свои комментарий, если Вы скачали Рокетмен через торрент бесплатно! Внесите свою лепту в развитие PiratBit!
    Комментировать посты могут только пользователи прошедшие не сложную регистрацию
    Показать сообщения:    

    Рокетмен через торрент
    Скачать бесплатно Рокетмен
    Рокетмен скачать торрент
    Рокетмен смотреть онлайн
    Cкачать фильм Рокетмен бесплатно
    Рокетмен скачать торрент в хорошем качестве
    Рокетмен смотреть онлайн бесплатно в хорошем качестве


    Вы не можете начинать темы
    Вы не можете отвечать на сообщения
    Вы не можете редактировать свои сообщения
    Вы не можете удалять свои сообщения
    Вы не можете голосовать в опросах
    Вы не можете прикреплять файлы к сообщениям
    Вы можете скачивать файлы