iTunes

1+1

iTunes

мы

iTunes

1

1 сезон

Чернобыль

1 сезон

Ральф против интернета

Лицензия

ПШазам

8 сезон

Игра престолов

Лицензия

30
pack

ВАЖНО

!!Акция!!

Alien_RageХит недели

RePack

Resident Evil 21

ИГРА 18+

pack

RePack

Metro:Exodus

!!Акция!!

Alien_Rage

RePack

fifa19

RePack

Assassins Creed: Odyssey

RePack

NEED FOR SPEED™ PAYBACK

3 сезон

9 сезон

Бесстыжие 9 сезон

Все сериалы

все сериалы на PB.wtf

RePack

FAR CRY 5
Ребята, катастрофически не хватает 2730р. для оплаты серверов за ИЮНЬ (всвязи с блокировками трафик упал в 3 раза), 1-2р., выручайте.
  

Груз 200 (Алексей Балабанов) [2007, триллер, драма, WEB-DL 720p от KORSAR] piratbit.cc

Груз 200 через торрент piratbit.cc

Раздают: 6 [ 0 KB/s ]
Размер: 5 GB | Добавлен: 7 д. назад | Торрент скачан:40 раз
Скачать  

11-07-2019 13:38 Груз 200 Скачать торрент  

Груз 200

Страна: Россия
Жанр: триллер, драма
Год выпуска: 2007
Продолжительность: 01:25:26

Перевод: Не требуется
Субтитры: русские, английские
Оригинальная аудиодорожка: русский

Режиссёр: Алексей Балабанов

В ролях: Агния Кузнецова, Алексей Полуян, Леонид Громов, Алексей Серебряков, Леонид Бичевин, Наталья Акимова, Юрий Степанов, Михаил Скрябин, Сергей Александров, Валентина Андрюкова, Константин Балакирев, Александр Баширов, Алёна Фалалеева, Юлия Глазунова, Дмитрий Карпов, Марина Королькова, Игорь Малухин, Ляля Миропольская, Андрей Мокеев, Александр Мосин

Описание: СССР. 1984 год. Финал советской эпохи. Провинция. После дискотеки пропадает дочь секретаря райкома партии. Свидетелей нет. Виновные не обнаружены. В этот же вечер в доме на окраине города происходит жестокое убийство. Виновный — хозяин дома. Оба расследования поручены капитану милиции Журову.

Релиз от:

Качество видео: WEB-DLRip 720p
Формат видео: MKV

Видео: MPEG-4 AVC, 1280x688, 25 fps, 7506 Кбит/с
Аудио: AC3, 6 ch, 448 Кбит/с, AC3, 2 ch, 256 Кбит/с
Язык: Русский
Субтитры: Русские, английские

& WEB-DLRip
  • x264 [info]: frame I:728 Avg QP:17.50 size:193189
  • x264 [info]: frame P:23658 Avg QP:18.91 size: 87940
  • x264 [info]: frame B:103770 Avg QP:20.79 size: 25960
  • x264 [info]: consecutive B-frames: 0.9% 1.2% 3.7% 11.6% 17.4% 41.9% 10.6% 4.6% 4.8% 2.0% 0.9% 0.4%
Общее
Уникальный идентификатор : 208250233148729491693452867715678198007 (0x9CAB8936F274E3E390882A7DB2D1D8F7)
Полное имя : D:\Груз-200_2007-WEB-DLRip 720p_KORSAR.mkv
Формат : Matroska
Версия формата : Version 2
Размер файла : 5,00 Гбайт
Продолжительность : 1 ч. 25 м.
Общий поток : 8377 Кбит/сек
Название фильма : Груз-200_2007-WEB-DLRip 720p_KORSAR
Дата кодирования : UTC 2019-06-26 12:12:35
Программа кодирования : mkvmerge v5.8.0 ('No Sleep / Pillow') built on Sep 2 2012 15:37:04
Библиотека кодирования : libebml v1.2.3 + libmatroska v1.3.0

Видео
Идентификатор : 1
Формат : AVC
Формат/Информация : Advanced Video Codec
Профиль формата : High@L4.1
Настройки формата : CABAC / 9 Ref Frames
Параметр CABAC формата : Да
Параметр RefFrames формата : 9 кадров
Идентификатор кодека : V_MPEG4/ISO/AVC
Продолжительность : 1 ч. 25 м.
Битрейт : 7506 Кбит/сек
Ширина : 1280 пикселей
Высота : 688 пикселей
Соотношение сторон : 1,85:1
Режим частоты кадров : Постоянный
Частота кадров : 25,000 кадров/сек
Цветовое пространство : YUV
Субдискретизация насыщенности : 4:2:0
Битовая глубина : 8 бит
Тип развёртки : Прогрессивная
Бит/(Пиксели*Кадры) : 0.341
Размер потока : 4,48 Гбайт (90%)
Библиотека кодирования : x264 core 152 r2851kMod ba24899
Настройки программы : cabac=1 / ref=9 / deblock=1:-2:-2 / analyse=0x3:0x113 / me=umh / subme=10 / psy=1 / fade_compensate=0.00 / psy_rd=1.05:0.10 / mixed_ref=1 / me_range=40 / chroma_me=1 / trellis=2 / 8x8dct=1 / cqm=0 / deadzone=21,11 / fast_pskip=1 / chroma_qp_offset=-3 / threads=12 / lookahead_threads=3 / sliced_threads=0 / nr=0 / decimate=1 / interlaced=0 / bluray_compat=0 / constrained_intra=0 / bframes=11 / b_pyramid=2 / b_adapt=2 / b_bias=0 / direct=1 / weightb=1 / open_gop=0 / weightp=2 / keyint=250 / keyint_min=25 / scenecut=40 / intra_refresh=0 / rc=crf / mbtree=0 / crf=17.7000 / qcomp=0.63 / qpmin=0 / qpmax=30 / qpstep=4 / ip_ratio=1.40 / pb_ratio=1.30 / aq=1:0.90
Язык : English
Default : Да
Forced : Нет
Цветовой диапазон : Limited
Основные цвета : BT.709
Характеристики трансфера : BT.709
Коэффициенты матрицы : BT.709

Аудио #1
Идентификатор : 2
Формат : AC-3
Формат/Информация : Audio Coding 3
Коммерческое название : Dolby Digital
Идентификатор кодека : A_AC3
Продолжительность : 1 ч. 25 м.
Вид битрейта : Постоянный
Битрейт : 448 Кбит/сек
Каналы : 6 каналов
ChannelLayout : L R C LFE Ls Rs
Частота : 48,0 КГц
Частота кадров : 31,250 кадров/сек (1536 SPF)
Битовая глубина : 16 бит
Метод сжатия : С потерями
Размер потока : 274 Мбайт (5%)
Язык : Russian
ServiceKind/String : Complete Main
Default : Да
Forced : Нет

Аудио #2
Идентификатор : 3
Формат : AC-3
Формат/Информация : Audio Coding 3
Коммерческое название : Dolby Digital
Идентификатор кодека : A_AC3
Продолжительность : 1 ч. 25 м.
Вид битрейта : Постоянный
Битрейт : 256 Кбит/сек
Каналы : 2 канала
ChannelLayout : L R
Частота : 48,0 КГц
Частота кадров : 31,250 кадров/сек (1536 SPF)
Битовая глубина : 16 бит
Метод сжатия : С потерями
Размер потока : 156 Мбайт (3%)
Язык : Russian
ServiceKind/String : Complete Main
Default : Нет
Forced : Нет

Текст #1
Идентификатор : 4
Формат : UTF-8
Идентификатор кодека : S_TEXT/UTF8
Идентификатор кодека/Информация : UTF-8 Plain Text
Язык : Russian
Default : Нет
Forced : Нет

Текст #2
Идентификатор : 5
Формат : UTF-8
Идентификатор кодека : S_TEXT/UTF8
Идентификатор кодека/Информация : UTF-8 Plain Text
Язык : English
Default : Нет
Forced : Нет

Меню
00:00:00.000 : en:Chapter 1
00:06:31.000 : en:Chapter 2
00:11:35.160 : en:Chapter 3
00:22:38.080 : en:Chapter 4
00:28:00.000 : en:Chapter 5
00:34:20.600 : en:Chapter 6
00:41:44.360 : en:Chapter 7
00:46:53.600 : en:Chapter 8
00:53:57.680 : en:Chapter 9
01:03:27.560 : en:Chapter 10
01:09:18.800 : en:Chapter 11
01:17:10.720 : en:Chapter 12
piratbit.cc



Скачать Груз 200 через торрент https://c.radikal.ru/c43/1907/ea/310ec1f4ee35.png Скачать фильм Груз 200 через торрент бесплантно в хорошем качестве Описание: СССР. 1984 год. Финал советской эпохи. Провинция. После дискотеки пропадает дочь секретаря райкома партии. Свидетелей нет. ... 7.8 10 4
Торрент: Зарегистрирован [2019-07-11 13:38] · скачан: 40 раз
Статус: √ проверено
Размер: 5 GB
Как cкачать? Как скачать Груз 200 через торрент | qTorrent

% Раздел Тема Автор DL S | L
Ultra HD (UHD: 2K, 4K, 8K) — видео сверхвысокой чёткости [ 65.64 GB ] Матрица: Перезагрузка / The Matrix Reloaded [2003 UHD BDRemux 2160p] DUB [Dolby Vision] sheker187 Скачать
3 | 0
Ultra HD (UHD: 2K, 4K, 8K) — видео сверхвысокой чёткости [ 41.43 GB ] Матрица: Перезагрузка / The Matrix Reloaded [2003 UHD BDRip 2160p] DUB + MVO + 2xDVO + 4xAVO sheker187 Скачать
1 | 0
Ultra HD (UHD: 2K, 4K, 8K) — видео сверхвысокой чёткости [ 76.4 GB ] Матрица: Перезагрузка / The Matrix Reloaded [2003 UHD BDRemux 2160p] DUB + 2xDVO + AVO sheker187 Скачать
1 | 0
Ultra HD (UHD: 2K, 4K, 8K) — видео сверхвысокой чёткости [ 84.55 GB ] Матрица: Перезагрузка / The Matrix Reloaded [2003 UHD Blu-ray 2160p] [Dolby Vision] sheker187 Скачать
1 | 0
Гонзо [ 2.18 GB ] Сперма нагрузки День 2 / A Sperm-Load A Day 2 ) [2008 Gonzo Anal Double Penetration Group Interracial Facial Oral Blowjob Toys DVDRip Оригинальный] DJASFUL Скачать
2 | 0
Наши фильмы, до 2010 [ 1.84 GB ] Груз 200 / Gruz 200 [2007 DVDRip] tyry999 Скачать
1 | 0
Порно фильмы HD [ 33.2 GB ] Братская Нагрузка 1234 / The Brother Load 1234 [2009 Anal Gonzo Interracial Straight Cumshots WEB-DL 720p - 1080p] Бавария Скачать
1 | 0


Последний раз редактировалось: filbi1976 (2019-07-12 07:19), всего редактировалось 1 раз


>> Регистрируемся здесь <<






Отзывы и комментарии о схеме читаем и пишем здесь: ---> Отзывы и комментарии о схеме

Новые благодарочки в телеграм довольных пользователей:
скриншот   скриншот   скриншот   скриншот   скриншот

11-07-2019 14:56 Груз 200 Скачать торрент  

Топик был перенесен из форума Фильмы (WEB-DL 720p, 1080p) в форум Наши фильмы (HD, WEB-DL 720p, 1080p)


bober100piratbit.cc



11-07-2019 14:59 Груз 200 Скачать торрент  

Самый епанутый фильм из всего, что я смотрел) Не рекомендую к просмотру!!!piratbit.cc



11-07-2019 16:08 Груз 200 Скачать торрент  

irezak, Полностью согласен.piratbit.cc



11-07-2019 18:43 Груз 200 Скачать торрент  

да ладно..., один раз можно)piratbit.cc



12-07-2019 06:50 Груз 200 Скачать торрент  

нормальный фильм.piratbit.cc



12-07-2019 09:26 Груз 200 Скачать торрент  

Очень противный и тяжелый фильм.piratbit.cc



13-07-2019 09:31 Груз 200 Скачать торрент  

irezak писал(а):

Самый епанутый фильм из всего, что я смотрел) Не рекомендую к просмотру!!!

это ты еще "дылду" не смотрел. груз 200 я досмотрел, было сложно, но я справился. а вот дылду даже не рискнулpiratbit.cc



    Дорогой пользователь! Огромная просьба, поблагодарите релизера, оцените раздачу и оставьте свои комментарий, если Вы скачали Груз 200 через торрент бесплатно! Внесите свою лепту в развитие PiratBit!
    Комментировать посты могут только пользователи прошедшие не сложную регистрацию
    Показать сообщения:    

    Груз 200 через торрент
    Скачать бесплатно Груз 200
    Груз 200 скачать торрент
    Груз 200 смотреть онлайн
    Cкачать фильм Груз 200 бесплатно
    Груз 200 скачать торрент в хорошем качестве
    Груз 200 смотреть онлайн бесплатно в хорошем качестве


    Вы не можете начинать темы
    Вы не можете отвечать на сообщения
    Вы не можете редактировать свои сообщения
    Вы не можете удалять свои сообщения
    Вы не можете голосовать в опросах
    Вы не можете прикреплять файлы к сообщениям
    Вы можете скачивать файлы