iTunes

1+1

iTunes

мы

iTunes

1

iTunes

Чернобыль

1 сезон

Ральф против интернета

Лицензия

ПШазам

Лицензия

Игра престолов

Лицензия

30
pack

ВАЖНО

!!Акция!!

Alien_RageХит недели

RePack

Resident Evil 21

ИГРА 18+

pack

RePack

Metro:Exodus

!!Акция!!

Alien_Rage

RePack

fifa19

RePack

Assassins Creed: Odyssey

RePack

NEED FOR SPEED™ PAYBACK

3 сезон

9 сезон

Бесстыжие 9 сезон

Все сериалы

все сериалы на PB.wtf

RePack

FAR CRY 5
Ребята, катастрофически не хватает 7730р. для оплаты серверов за ИЮЛЬ (всвязи с блокировками трафик упал в 3 раза), 1-2р., выручайте.
  

Город на холме / City on a Hill / Сезон: 1 / Серии: 1-9 из 10 (Хагар Бен-Ашер, Эдвард Бьянчи, Майкл Куэста) [2019, триллер, драма, криминал, WEBRip] MVO [LostFilm] piratbit.cc

Город на холме через торрент piratbit.cc

Раздают: 1 [ 15 KB/s ]
Размер: 7.24 GB | Добавлен: 2 д. 17 ч. назад | Торрент скачан:6 раз
Скачать  

12-07-2019 09:17 Город на холме Скачать торрент  

Город на холме / City on a Hill Год выпуска: 2019
Страна: США
Жанр: триллер, драма, криминал
Продолжительность: ~ 01:02:00
Перевод: Профессиональный (многоголосый закадровый) | LostFilm
Субтитры: Английские

Режиссёр: Хагар Бен-Ашер, Эдвард Бьянчи, Майкл Куэста

В ролях: Кевин Бэйкон, Элдис Ходж, Джонатан Такер, Марк О'Брайэн, Лорен Е. Бэнкс, Джилл Хеннесси, Джир Ши, Аманда Клэйтон, Кевин Чэпмен, Нора Мерфи

Описание: Действие разворачивается в начале 1990-х в Бостоне, погрязшем в преступности, коррупции и расизме. Однажды в городе появляется новый чернокожий окружной прокурор из Бруклина, Декорси Уорд, который намерен во что бы то ни стало изменить существующие порядки. Герой вынужден заключить сомнительный союз с коррумпированным, но уважаемым ветераном ФБР Джеки Роудсом. Уорд надеется с его помощью выйти на след опасной банды налётчиков на инкассаторов. Вскоре их сотрудничество навсегда меняет систему уголовного правосудия в Бостоне.

rating
Качество: WEBRip
Формат: AVI

Видео: XviD, 720x400, 23,976 fps, ~ 1599 kbps
Аудио 1: 48 kHz, AC3 2 ch, ~192 kbps|LostFilm|
Аудио 2: 48 kHz, AC3 2 ch, ~192 kbps


Реклама: Отсутствует
Обрезка заставки и синхронизация: kogesan
Format : AVI
Format/Info : Audio Video Interleave
File size : 897 MiB
Duration : 1h 2mn
Overall bit rate : 1 998 Kbps
Movie name : Город на холме 1х01: День, когда Флинн отправил копов на лед
Director : Бёдвар (WEBRip 400p)
Writing application : VirtualDubModRus 1.5.10.2 (build 2542/release)
Comment : 23.06.2019

Video
ID : 0
Format : MPEG-4 Visual
Format profile : Advanced Simple@L5
Format settings, BVOP : 1
Format settings, QPel : No
Format settings, GMC : No warppoints
Format settings, Matrix : Default (MPEG)
Codec ID : XVID
Codec ID/Hint : XviD
Duration : 1h 2mn
Bit rate : 1 600 Kbps
Width : 720 pixels
Height : 400 pixels
Display aspect ratio : 16:9
Frame rate : 23.976 (24000/1001) fps
Color space : YUV
Chroma subsampling : 4:2:0
Bit depth : 8 bits
Scan type : Progressive
Compression mode : Lossy
Bits/(Pixel*Frame) : 0.232
Stream size : 718 MiB (80%)
Writing library : XviD 67

Audio #1
ID : 1
Format : AC-3
Format/Info : Audio Coding 3
Mode extension : CM (complete main)
Format settings, Endianness : Big
Codec ID : 2000
Duration : 1h 2mn
Bit rate mode : Constant
Bit rate : 192 Kbps
Channel(s) : 2 channels
Channel positions : Front: L R
Sampling rate : 48.0 KHz
Frame rate : 31.250 fps (1536 spf)
Compression mode : Lossy
Stream size : 86.2 MiB (10%)
Alignment : Split accross interleaves
Interleave, duration : 42 ms (1.00 video frame)
Interleave, preload duratio : 500 ms

Audio #2
ID : 2
Format : AC-3
Format/Info : Audio Coding 3
Mode extension : CM (complete main)
Format settings, Endianness : Big
Codec ID : 2000
Duration : 1h 2mn
Bit rate mode : Constant
Bit rate : 192 Kbps
Channel(s) : 2 channels
Channel positions : Front: L R
Sampling rate : 48.0 KHz
Frame rate : 31.250 fps (1536 spf)
Compression mode : Lossy
Stream size : 86.2 MiB (10%)
Alignment : Split accross interleaves
Interleave, duration : 42 ms (1.00 video frame)
Interleave, preload duratio : 500 ms
скриншот  скриншот  скриншот  скриншот  
Внимание! Раздача ведётся путём добавления новых серий; при каждом добавлении создаётся новый торрент. Чтобы начать докачку новой серии,пользователям необходимо сделать следующее:
(1) остановить скачивание,
(2) удалить старый торрент у себя из клиента (старые серии удалять не надо),
(3) скачать новый торрент и запустить его у себя в клиенте вместо старого, при этом указать клиенту путь в старую папку куда и должнопроисходить скачивание новых серий.

Ваш клиент при этом должен произвести хеширование (проверку) старой папки (если не производит сам - помогите ему сделать это), и будет докачивать только те серии
которых у вас ещё нет. Старые серии при этом не удаляются, а продолжают раздаваться!

Eсли вы уже удалили старые серии, то предотвратить повторную закачку старых серий можно, отжав галочку в соответствующих местах при запуске нового торрента.

По возможности, желательно не удалять старые серии как можно дольше чтобы релизёр не столько продолжал раздавать старые серии, а смог сконцентрироваться на новых.
piratbit.cc



Скачать Город на холме через торрент https://c.radikal.ru/c15/1906/31/4d17c54312c4.jpg Скачать фильм Город на холме через торрент бесплантно в хорошем качестве Описание: Действие разворачивается в начале 1990-х в Бостоне, погрязшем в преступности, коррупции и расизме. Однажды в городе появляется ... 10 10 3
Торрент: Зарегистрирован [2019-08-16 12:55] · скачан: 6 раз
Статус: √ проверено
Размер: 7.24 GB
Как cкачать? Как скачать Город на холме через торрент | qTorrent

% Раздел Тема Автор DL S | L
Зарубежные сериалы [ 37.56 GB ] Город на холме / City on a Hill / Сезон: 1 / Серии: 1-9 из 10 [2019 WEB-DL 1080p] MVO [Amedia] bober100 Скачать
1 | 0
Зарубежные сериалы [ 37.38 GB ] Город на холме / City on a Hill / Сезон: 1 / Серия: 1-9 из 10 [2019 WEB-DL 1080p] [MVO] killermax2013 Скачать
1 | 1
Зарубежные сериалы [ 18.53 GB ] Город на холме / City on a Hill / Сезон: 1 / Серии: 1-9 из 10 [2019 WEBRip 720p] [MVO] killermax2013 Скачать
2 | 0
Зарубежные сериалы [ 17.61 GB ] Город на холме / City on a Hill / Сезон: 1 / Серии: 1-9 из 10 [2019 WEB-DL 720p] MVO [AlexFilm] bober100 Скачать
1 | 0


>> Регистрируемся здесь <<






Отзывы и комментарии о схеме читаем и пишем здесь: ---> Отзывы и комментарии о схеме

Новые благодарочки в телеграм довольных пользователей:
скриншот   скриншот   скриншот   скриншот   скриншот
    Дорогой пользователь! Огромная просьба, поблагодарите релизера, оцените раздачу и оставьте свои комментарий, если Вы скачали Город на холме через торрент бесплатно! Внесите свою лепту в развитие PiratBit!
    Комментировать посты могут только пользователи прошедшие не сложную регистрацию
    Показать сообщения:    

    Город на холме через торрент
    Скачать бесплатно Город на холме
    Город на холме скачать торрент
    Город на холме смотреть онлайн
    Cкачать фильм Город на холме бесплатно
    Город на холме скачать торрент в хорошем качестве
    Город на холме смотреть онлайн бесплатно в хорошем качестве


    Вы не можете начинать темы
    Вы не можете отвечать на сообщения
    Вы не можете редактировать свои сообщения
    Вы не можете удалять свои сообщения
    Вы не можете голосовать в опросах
    Вы не можете прикреплять файлы к сообщениям
    Вы можете скачивать файлы