iTunes

1+1

iTunes

мы

iTunes

1

iTunes

Чернобыль

1 сезон

Ральф против интернета

Лицензия

ПШазам

Лицензия

Игра престолов

Лицензия

30
pack

ВАЖНО

!!Акция!!

Alien_RageХит недели

RePack

Resident Evil 21

ИГРА 18+

pack

RePack

Metro:Exodus

!!Акция!!

Alien_Rage

RePack

fifa19

RePack

Assassins Creed: Odyssey

RePack

NEED FOR SPEED™ PAYBACK

3 сезон

9 сезон

Бесстыжие 9 сезон

Все сериалы

все сериалы на PB.wtf

RePack

FAR CRY 5
Ребята, катастрофически не хватает 7730р. для оплаты серверов за ИЮЛЬ (всвязи с блокировками трафик упал в 3 раза), 1-2р., выручайте.
  

Легион / Legion / Сезон: 3 / Серии: 1-8 из 8 (Тим Милантс) [2019, фантастика, боевик, триллер, драма, WEB-DL 1080p] MVO [TVShows] piratbit.cc

Легион через торрент piratbit.cc

Раздают: 1 [ 174 KB/s ]
Размер: 25.76 GB | Добавлен: 2 д. 20 ч. назад | Торрент скачан:1 раз
Скачать  

12-07-2019 10:55 Легион Скачать торрент  

Легион / Legion
«***»
Производство: США
Год выпуска: 2019
Жанр: фантастика, боевик, триллер, драма
Продолжительность: ~ 00:59:00 серия
Перевод: Многоголосый закадровый, профессиональный |TVShows|
Субтитры: Eng

Режиссер: Тим Милантс, Майкл Аппендаль, Джон Камерон

В ролях: Дэн Стивенс, Джин Смарт, Маккензи Грэй, Скотт Лоуренс, Кэтрин Аселтон, Татьяна Форрест, Джереми Харрис, Билл Ирвин, Рэйчел Келлер, Эмбер Мидфандер, Обри Плаза, Хамиш Линклэйтер, Дженнифер Китчен

Описание:
Дэвиду Хэллеру поставлен диагноз — шизофрения. Постепенно выясняется, что картины и голоса, которые он видит и слышит, вполне реальны, а не бред его воспаленного разума.



Качество: WEB-DL 1080p
Формат: MKV

Видео: AVC, 1920 x 1080 (1.778) 23.976 fps, ~8890 kbps
Аудио Rus: AC-3, 48 kHz, 6 ch, 448kbps |TVShows|
Аудио Eng: E-AC-3, 48 kHz, 6 ch, 640 kbps |Original|
General
Unique ID : 314592137657095041929711513600424089330 (0xECAC3DE7CD2A480659F1C0170EA716F2)
Complete name : C:\Users\Desktop\Legion.S03.1080p.TVShows\Legion.S03E01.1080p.TVShows.mkv
Format : Matroska
Format version : Version 4 / Version 2
File size : 3.43 GiB
Duration : 49 min 12 s
Overall bit rate : 9 974 kb/s
Encoded date : UTC 2019-06-28 09:23:42
Writing application : mkvmerge v33.1.0 ('Primrose') 64-bit
Writing library : libebml v1.3.7 + libmatroska v1.5.0

Video
ID : 1
Format : AVC
Format/Info : Advanced Video Codec
Format profile : High@L4
Format settings : CABAC / 4 Ref Frames
Format settings, CABAC : Yes
Format settings, ReFrames : 4 frames
Codec ID : V_MPEG4/ISO/AVC
Duration : 49 min 10 s
Bit rate mode : Constant
Bit rate : 8 890 kb/s
Nominal bit rate : 10 000 kb/s
Width : 1 920 pixels
Height : 1 080 pixels
Display aspect ratio : 16:9
Frame rate mode : Constant
Frame rate : 23.976 (24000/1001) FPS
Color space : YUV
Chroma subsampling : 4:2:0
Bit depth : 8 bits
Scan type : Progressive
Bits/(Pixel*Frame) : 0.179
Stream size : 3.05 GiB (89%)
Default : Yes
Forced : No
Color range : Limited
Color primaries : BT.709
Transfer characteristics : BT.709
Matrix coefficients : BT.709

Audio #1
ID : 2
Format : AC-3
Format/Info : Audio Coding 3
Codec ID : A_AC3
Duration : 49 min 12 s
Bit rate mode : Constant
Bit rate : 448 kb/s
Channel(s) : 6 channels
Channel positions : Front: L C R, Side: L R, LFE
Sampling rate : 48.0 kHz
Frame rate : 31.250 FPS (1536 SPF)
Bit depth : 16 bits
Compression mode : Lossy
Stream size : 158 MiB (4%)
Title : TVShows
Language : Russian
Service kind : Complete Main
Default : Yes
Forced : Yes

Audio #2
ID : 3
Format : E-AC-3
Format/Info : Enhanced Audio Coding 3
Codec ID : A_EAC3
Duration : 49 min 10 s
Bit rate mode : Constant
Bit rate : 640 kb/s
Channel(s) : 6 channels
Channel positions : Front: L C R, Side: L R, LFE
Sampling rate : 48.0 kHz
Frame rate : 187.500 FPS (256 SPF)
Compression mode : Lossy
Delay relative to video : 30 ms
Stream size : 225 MiB (6%)
Title : Original
Language : English
Service kind : Complete Main
Default : No
Forced : No

Text
ID : 4
Format : UTF-8
Codec ID : S_TEXT/UTF8
Codec ID/Info : UTF-8 Plain Text
Duration : 49 min 10 s
Bit rate : 37 b/s
Count of elements : 602
Stream size : 13.4 KiB (0%)
Title : English
Language : English
Default : No
Forced : No
Раздача ведётся путём добавления новых серий; при каждом добавлении создаётся новый торрент.
Чтобы начать докачку новой серии, пользователям необходимо сделать следующее:
1. остановить скачивание,
2. удалить старый торрент у себя из клиента (старые серии удалять не надо),
3. скачать новый торрент и запустить его у себя в клиенте вместо старого, при этом указать клиенту путь в старую папку, куда и должно происходить скачивание новых серий.

Ваш клиент при этом должен произвести хеширование (проверку) старой папки (если не производит сам - помогите ему сделать это), и будет докачивать только те серии которых у вас ещё нет. Старые серии при этом не удаляются, а продолжают раздаваться!

Eсли вы уже удалили старые серии, то предотвратить повторную закачку старых серий можно, отжав галочку в соответствующих местах при запуске нового торрента. По возможности, желательно не удалять старые серии как можно дольше, чтобы релизёр не столько продолжал раздавать старые серии, а смог сконцентрироваться на новых.

Совет для тех, кто не хочет ждать перехеширования:
Создайте ещё одну папку рядом с папкой сериала (рядом, а не в ней!!!). Каждую новую серию после удачной загрузки копируйте в новую папку так чтобы ваша основная папка всегда была пуста. Когда ваш новый торрент предложит вам закачать все файлы, выберете только последнюю. Для сидирования же укажите адрес новой папки.

Как закачать отдельный файл из торрента или докачать ранее пропущенные файлы торрента!
1. Открыть торрент
2. Снять галки с тех файлов торрента, которые мы не хотим закачивать. Оставляем только на нужных нам файлах (файле).
3. Нажать О.К.

В клиенте utorrent

Инструкция

1) Открыть торрент


2) Снять галки с тех файлов торрента, которые мы не хотим закачивать:

* либо вручную, снимая с каждого файла галку( скрин №1)
* либо, нажав кнопку "Снять метки (Select None)", сняв сразу со всех файлов(скрин №2)
№1

№2

Оставляем только на нужных нам файлах (файле).

3)Нажать О.К
Приятного просмотра!!!piratbit.cc



Скачать Легион через торрент https://i2.imageban.ru/out/2019/06/27/844521a46ffdde19b35126ec3398c400.png Скачать фильм Легион через торрент бесплантно в хорошем качестве Описание:Дэвиду Хэллеру поставлен диагноз — шизофрения. Постепенно выясняется, что картины и голоса, которые он видит и слышит, вполне ... 10 10 4
Торрент: Зарегистрирован [2019-08-16 09:56] · скачан: 1 раз
Статус: √ проверено
Размер: 25.76 GB
Как cкачать? Как скачать Легион через торрент | qTorrent

% Раздел Тема Автор DL S | L
Зарубежные сериалы [ 10.1 GB ] Легион / Legion / Сезон: 3 / Серии: 1-8 из 8 [2019 WEB-DL 720p] [MVO] killermax2013 Скачать
2 | 0
Зарубежные сериалы [ 25.74 GB ] Легион / Legion / Сезон: 3 / Серии: 1-8 из 8 [2019 WEB-DL 1080p] MVO [LostFilm] bober100 Скачать
2 | 0
Зарубежные сериалы [ 5.2 GB ] Легион / Legion / Сезон: 3 / Серии: 1-8 из 8 [2019 . WEB-DLRip] MVO [LostFilm] bober100 Скачать
1 | 0
Зарубежные сериалы [ 1.58 GB ] Легион / Legion / Сезон: 3 / Серии: 1- из 8 [2019 WEB-DL 720p] [VO] killermax2013 Скачать
1 | 0


>> Регистрируемся здесь <<






Отзывы и комментарии о схеме читаем и пишем здесь: ---> Отзывы и комментарии о схеме

Новые благодарочки в телеграм довольных пользователей:
скриншот   скриншот   скриншот   скриншот   скриншот
    Дорогой пользователь! Огромная просьба, поблагодарите релизера, оцените раздачу и оставьте свои комментарий, если Вы скачали Легион через торрент бесплатно! Внесите свою лепту в развитие PiratBit!
    Комментировать посты могут только пользователи прошедшие не сложную регистрацию
    Показать сообщения:    

    Легион через торрент
    Скачать бесплатно Легион
    Легион скачать торрент
    Легион смотреть онлайн
    Cкачать фильм Легион бесплатно
    Легион скачать торрент в хорошем качестве
    Легион смотреть онлайн бесплатно в хорошем качестве


    Вы не можете начинать темы
    Вы не можете отвечать на сообщения
    Вы не можете редактировать свои сообщения
    Вы не можете удалять свои сообщения
    Вы не можете голосовать в опросах
    Вы не можете прикреплять файлы к сообщениям
    Вы можете скачивать файлы