iTunes

1+1

iTunes

мы

iTunes

1

1 сезон

Чернобыль

1 сезон

Ральф против интернета

Лицензия

ПШазам

8 сезон

Игра престолов

Лицензия

30
pack

ВАЖНО

!!Акция!!

Alien_RageХит недели

RePack

Resident Evil 21

ИГРА 18+

pack

RePack

Metro:Exodus

!!Акция!!

Alien_Rage

RePack

fifa19

RePack

Assassins Creed: Odyssey

RePack

NEED FOR SPEED™ PAYBACK

3 сезон

9 сезон

Бесстыжие 9 сезон

Все сериалы

все сериалы на PB.wtf

RePack

FAR CRY 5
Ребята, катастрофически не хватает 2730р. для оплаты серверов за ИЮНЬ (всвязи с блокировками трафик упал в 3 раза), 1-2р., выручайте.
  

Раскопка / Раскопки / Dig / Сезон: 1 / Серии: 1-10 из 10 (С.Дж. Кларксон) [2015, драма, приключения, WEB-DLRip-AVC] MVO [NewStudio] piratbit.cc

Раскопка через торрент piratbit.cc

Раздают: 1 [ 0 KB/s ] Качают: 1 [ 0 KB/s ]
Размер: 6.09 GB | Добавлен: 4 д. назад | Торрент скачан:18 раз
Скачать  

14-07-2019 11:57 Раскопка Скачать торрент  

Раскопка / Раскопки / Dig Год выпуска: 2015
Страна: США
Жанр: драма, приключения
Продолжительность: ~ 01:04:59
Перевод: Профессиональный (многоголосый закадровый) | NewStudio
Субтитры: отсутствуют

Режиссёр: С.Дж. Кларксон

В ролях:

Яэль Эйтан (Liat), Зен МакГрат (Josh), Ори Феффер (Detective Golan Cohen), Гай Селник (Avram), Брайан Барела (Marine), Ричард Бил (Israeli Ambassador), Дерек Блэкни (Party goer), Рич Чавез (Israeli Secret Servise (Driver)), Дэвид Костабайл (Ted Billingham), Steven Diller (Hasidic Jew), Jetto Dorsainville (Marine), Элизабет М. Кэллмен (U.S. Consulate Employee)
Описание:
Питер, агент ФБР, базирующийся в Иерусалиме, в процессе расследования убийства молодой женщины-археолога открывает заговор, которому уже 2000 лет.

rating

Качество: WEB-DLRip-AVC
Контейнер: MKV

Видео: AVC, High@L4.1, 1024x576, 23.976 fps, ~1250 kbps
Аудио rus: AC3, 48 KHz, 6 ch, 384 kbps | NewStudio
Перевод: Наталья Черненко
Постер: Vortex
01. Пилот / Pilot
02. До скорого / Catch You Later
03. Знакомьтесь, Розенберги / Meet the Rosenbergs
04. Молитка Давида / Prayer of David
05. Отец Эммы Уилсон / Emma Wilson's Father
06. The Well of Souls
07. Trust No One /Никому не верь
08. Sisters of Dinah /Сестры Дины
09. Jehoshaphat /Иосафат
10. Armageddon Protocol /Протокол Армагеддон
Общее
Уникальный идентификатор : 195275754756239830317640331834226367282 (0x92E8BE0AA2B54530948644FC1E03DB32)
Полное имя : D:\Раскопка.(2015).WEB-DLRip_AVC\Dig.[s01e01].WEB-DLRip-AVC.[-=DoMiNo=-].NewStudio.mkv
Формат : Matroska
Версия формата : Version 4 / Version 2
Размер файла : 772 Мбайт
Продолжительность : 1 ч. 4 м.
Общий поток : 1662 Кбит/сек
Программа кодирования : XviD4PSP 7.0 / 56.15.102
Библиотека кодирования : XviD4PSP 7.0 / 56.15.102 / XviD4PSP 7.0 / 56.15.102

Видео
Идентификатор : 1
Формат : AVC
Формат/Информация : Advanced Video Codec
Профиль формата : High@L4.1
Параметр CABAC формата : Да
Параметр RefFrames формата : 10 кадров
Идентификатор кодека : V_MPEG4/ISO/AVC
Продолжительность : 1 ч. 4 м.
Битрейт : 1244 Кбит/сек
Ширина : 1024 пикселя
Высота : 576 пикселей
Соотношение сторон : 16:9
Режим частоты кадров : Постоянный
Частота кадров : 23,976 (24000/1001) кадра/сек
Цветовое пространство : YUV
Субдискретизация насыщенности : 4:2:0
Битовая глубина : 8 бит
Тип развёртки : Прогрессивная
Бит/(Пиксели*Кадры) : 0.088
Размер потока : 578 Мбайт (75%)
Библиотека кодирования : x264 core 146 r2538M 121396c
Настройки программы : cabac=1 / ref=10 / deblock=1:-3:-3 / analyse=0x3:0x133 / me=umh / subme=10 / psy=1 / psy_rd=1,00:0,10 / mixed_ref=1 / me_range=32 / chroma_me=1 / trellis=2 / 8x8dct=1 / cqm=0 / deadzone=21,11 / fast_pskip=1 / chroma_qp_offset=-3 / threads=12 / lookahead_threads=2 / sliced_threads=0 / nr=0 / decimate=1 / interlaced=0 / bluray_compat=0 / constrained_intra=0 / bframes=9 / b_pyramid=2 / b_adapt=2 / b_bias=0 / direct=1 / weightb=1 / open_gop=0 / weightp=2 / keyint=230 / keyint_min=23 / scenecut=40 / intra_refresh=0 / rc=crf / mbtree=0 / crf=19,0 / qcomp=0,60 / qpmin=19 / qpmax=69 / qpstep=4 / ip_ratio=1,40 / pb_ratio=1,30 / aq=1:1,00
Язык : English
Default : Да
Forced : Нет
Цветовой диапазон : Limited
Основные цвета : BT.709
Характеристики трансфера : BT.709
Коэффициенты матрицы : BT.709

Аудио
Идентификатор : 2
Формат : AC-3
Формат/Информация : Audio Coding 3
Расширение режима : CM (complete main)
Параметр Endianness формата : Big
Идентификатор кодека : A_AC3
Продолжительность : 1 ч. 4 м.
Вид битрейта : Постоянный
Битрейт : 384 Кбит/сек
Каналы : 6 каналов
Расположение каналов : Front: L C R, Side: L R, LFE
Частота : 48,0 КГц
Частота кадров : 31,250 кадров/сек (1536 spf)
Битовая глубина : 32 бит
Метод сжатия : С потерями
Размер потока : 178 Мбайт (23%)
Язык : Russian
Default : Да
Forced : Нет
скриншот  скриншот  скриншот  скриншот  скриншот  
piratbit.cc



Скачать Раскопка через торрент http://i63.fastpic.ru/big/2015/0308/71/9547e47d8b7723bd0240cb90f883e471.png Скачать фильм Раскопка через торрент бесплантно в хорошем качестве Описание:Питер, агент ФБР, базирующийся в Иерусалиме, в процессе расследования убийства молодой женщины-археолога открывает заговор, ... 10 10 2
Торрент: Зарегистрирован [2019-07-14 11:57] · скачан: 18 раз
Статус: √ проверено
Размер: 6.09 GB
Как cкачать? Как скачать Раскопка через торрент | qTorrent

% Раздел Тема Автор DL S | L
Зарубежные сериалы [ 14.79 GB ] Раскопки / Dig / Сезон: 1 / Серии 1-10 из 10 [2015 HDTVRip 720р MVO] [NewStudio] GEKADOL Скачать
1 | 1
Зарубежные сериалы [ 5.52 GB ] Раскопки / Dig / Сезон: 1 / Серии 1-10 из 10 [2015 HDTVRip MVO] [NewStudio] GEKADOL Скачать
2 | 1
Зарубежные сериалы [ 751 MB ] Раскопки / Раскопка / Dig / Сезон: 1 / Серии: 1 из 10 [2015 WEB-DLRip] MVO + Original Assasinca Скачать
1 | 0


>> Регистрируемся здесь <<






Отзывы и комментарии о схеме читаем и пишем здесь: ---> Отзывы и комментарии о схеме

Новые благодарочки в телеграм довольных пользователей:
скриншот   скриншот   скриншот   скриншот   скриншот
    Дорогой пользователь! Огромная просьба, поблагодарите релизера, оцените раздачу и оставьте свои комментарий, если Вы скачали Раскопка через торрент бесплатно! Внесите свою лепту в развитие PiratBit!
    Комментировать посты могут только пользователи прошедшие не сложную регистрацию
    Показать сообщения:    

    Раскопка через торрент
    Скачать бесплатно Раскопка
    Раскопка скачать торрент
    Раскопка смотреть онлайн
    Cкачать фильм Раскопка бесплатно
    Раскопка скачать торрент в хорошем качестве
    Раскопка смотреть онлайн бесплатно в хорошем качестве


    Вы не можете начинать темы
    Вы не можете отвечать на сообщения
    Вы не можете редактировать свои сообщения
    Вы не можете удалять свои сообщения
    Вы не можете голосовать в опросах
    Вы не можете прикреплять файлы к сообщениям
    Вы можете скачивать файлы