iTunes

1+1

iTunes

мы

iTunes

1

1 сезон

Чернобыль

1 сезон

Ральф против интернета

Лицензия

ПШазам

8 сезон

Игра престолов

Лицензия

30
pack

ВАЖНО

!!Акция!!

Alien_RageХит недели

RePack

Resident Evil 21

ИГРА 18+

pack

RePack

Metro:Exodus

!!Акция!!

Alien_Rage

RePack

fifa19

RePack

Assassins Creed: Odyssey

RePack

NEED FOR SPEED™ PAYBACK

3 сезон

9 сезон

Бесстыжие 9 сезон

Все сериалы

все сериалы на PB.wtf

RePack

FAR CRY 5
Ребята, катастрофически не хватает 2730р. для оплаты серверов за ИЮНЬ (всвязи с блокировками трафик упал в 3 раза), 1-2р., выручайте.
  

Дэрил / D.A.R.Y.L. (Саймон Уинсер) [1985 г., Фантастика, семейный, WEB-DL 1080p от KORSAR][MVO] piratbit.cc

Дэрил через торрент piratbit.cc

Раздают: 1 [ 0 KB/s ]
Размер: 7.41 GB | Добавлен: 4 д. назад | Торрент скачан:7 раз
Скачать  

14-07-2019 13:29 Дэрил Скачать торрент  

Название: Дэрил
Оригинальное название: D.A.R.Y.L.
Год выпуска: 1985
Жанр: Фантастика, семейный

Режиссер: Саймон Уинсер
В ролях: Баррет Оливер, Мэри Бет Хёрт, Майкл МакКин, Кэтрин Уокер, Коллин Кэмп, Джозеф Соммер, Стив Райан, Рон Фрэзьер, Дэвид Вол, Дэнни Коркилл, Эми Линкер

О фильме: Молодая супружеская пара усыновляет найденного в лесу мальчика, который страдает частичной потерей памяти, но обладает уникальными способностями. Он научился играть на пианино за несколько минут, в школе показал потрясающие знания, а в бейсбол играл на зависть профессионалам. Он был идеальным сыном, что казалось несколько странным. Подозрения не были беспочвенными — Дэрил оказался андроидом, украденным с секретной военной базы...

rating

Продолжительность: 01:39:55
Выпущено: США, Великобритания, Paramount Pictures, World Film Services
Перевод: Профессиональный многоголосый

Качество: WEB-DL 1080p
Формат: MKV
Видео: MPEG-4 AVC, 9158 Кбит/сек, 1920x1080, 23,976 кадра/сек
Аудио #1: AC3, 6 ch, 448 Кбит/сек | Русский, профессиональный (многоголосый закадровый) 1 канал, HDTV
Аудио #2: AC3, 2 ch, 192 Кбит/сек | Русский, профессиональный (многоголосый закадровый) 1 канал, DVD
Аудио #3: AC3, 6 ch, 384 Кбит/сек | Английский, оригинал, HDTV
Аудио #4: EAC3, 2 ch, 224 Кбит/сек | Английский, оригинал, WEB-DL
Субтитры: Русские, английские
Навигация по главам: Есть

Релиз от:
Общее
Уникальный идентификатор : 177797330023932806189787134931677005772 (0x85C2852B56418EAAB7662569C57CC7CC)
Полное имя : Дэрил.1985.WEB-DL.1080p.mkv
Формат : Matroska
Версия формата : Version 2
Размер файла : 7,41 Гбайт
Продолжительность : 1 ч. 39 м.
Режим общего битрейта : Переменный
Общий поток : 10,6 Мбит/сек
Дата кодирования : UTC 2018-06-14 19:26:23
Программа кодирования : mkvmerge v5.8.0 ('No Sleep / Pillow') built on Sep 2 2012 15:37:04
Библиотека кодирования : libebml v1.2.3 + libmatroska v1.3.0

Видео
Идентификатор : 1
Формат : AVC
Формат/Информация : Advanced Video Codec
Профиль формата : High@L4
Настройки формата : CABAC / 4 Ref Frames
Параметр CABAC формата : Да
Параметр RefFrames формата : 4 кадра
Идентификатор кодека : V_MPEG4/ISO/AVC
Продолжительность : 1 ч. 39 м.
Вид битрейта : Переменный
Битрейт : 9158 Кбит/сек
Максимальный битрейт : 15,0 Мбит/сек
Ширина : 1920 пикселей
Высота : 1080 пикселей
Соотношение сторон : 16:9
Режим частоты кадров : Постоянный
Частота кадров : 23,976 (24000/1001) кадра/сек
Цветовое пространство : YUV
Субдискретизация насыщенности : 4:2:0
Битовая глубина : 8 бит
Тип развёртки : Прогрессивная
Бит/(Пиксели*Кадры) : 0.184
Размер потока : 6,39 Гбайт (86%)
Язык : English
Default : Да
Forced : Нет
Цветовой диапазон : Limited
Основные цвета : BT.709
Характеристики трансфера : BT.709
Коэффициенты матрицы : BT.709

Аудио #1
Идентификатор : 2
Формат : AC-3
Формат/Информация : Audio Coding 3
Идентификатор кодека : A_AC3
Продолжительность : 1 ч. 39 м.
Вид битрейта : Постоянный
Битрейт : 448 Кбит/сек
Каналы : 6 каналов
Расположение каналов : Front: L C R, Side: L R, LFE
Частота : 48,0 КГц
Частота кадров : 31,250 кадров/сек (1536 SPF)
Битовая глубина : 16 бит
Метод сжатия : С потерями
Размер потока : 320 Мбайт (4%)
Заголовок : MVO | 5.1, 1 канал
Язык : Russian
По умолчанию : Да
Принудительно : Нет

Аудио #2
Идентификатор : 3
Формат : AC-3
Формат/Информация : Audio Coding 3
Идентификатор кодека : A_AC3
Продолжительность : 1 ч. 39 м.
Вид битрейта : Постоянный
Битрейт : 192 Кбит/сек
Каналы : 2 канала
Расположение каналов : Front: L R
Частота : 48,0 КГц
Частота кадров : 31,250 кадров/сек (1536 SPF)
Битовая глубина : 16 бит
Метод сжатия : С потерями
Размер потока : 137 Мбайт (2%)
Заголовок : MVO | 2.0, 1 канал
Язык : Russian
По умолчанию : Нет
Принудительно : Нет

Аудио #3
Идентификатор : 4
Формат : AC-3
Формат/Информация : Audio Coding 3
Идентификатор кодека : A_AC3
Продолжительность : 1 ч. 39 м.
Вид битрейта : Постоянный
Битрейт : 384 Кбит/сек
Каналы : 6 каналов
Расположение каналов : Front: L C R, Side: L R, LFE
Частота : 48,0 КГц
Частота кадров : 31,250 кадров/сек (1536 SPF)
Битовая глубина : 16 бит
Метод сжатия : С потерями
Размер потока : 274 Мбайт (4%)
Заголовок : Original | 5.1
Язык : English
По умолчанию : Нет
Принудительно : Нет

Аудио #4
Идентификатор : 5
Формат : E-AC-3
Формат/Информация : Enhanced Audio Coding 3
Идентификатор кодека : A_EAC3
Продолжительность : 1 ч. 39 м.
Вид битрейта : Постоянный
Битрейт : 224 Кбит/сек
Каналы : 2 канала
Расположение каналов : Front: L R
Частота : 48,0 КГц
Частота кадров : 187,500 кадров/сек (256 SPF)
Метод сжатия : С потерями
Задержка видео : 15 мс.
Размер потока : 160 Мбайт (2%)
Заголовок : Original | 2.0
Язык : English
По умолчанию : Нет
Принудительно : Нет

Текст #1
Идентификатор : 6
Формат : UTF-8
Идентификатор кодека : S_TEXT/UTF8
Идентификатор кодека/Информация : UTF-8 Plain Text
Язык : Russian
По умолчанию : Нет
Принудительно : Нет

Текст #2
Идентификатор : 7
Формат : UTF-8
Идентификатор кодека : S_TEXT/UTF8
Идентификатор кодека/Информация : UTF-8 Plain Text
Язык : English
По умолчанию : Нет
Принудительно : Нет

Текст #3
Идентификатор : 8
Формат : UTF-8
Идентификатор кодека : S_TEXT/UTF8
Идентификатор кодека/Информация : UTF-8 Plain Text
Заголовок : SDH
Язык : English
По умолчанию : Нет
Принудительно : Нет

Меню
00:00:00.000 : en:The Welfare of D.A.R.Y.L.
00:08:22.786 : en:Getting Acquainted
00:16:21.631 : en:A Natural Genius
00:25:30.313 : en:Not So Perfect
00:35:48.547 : en:D.A.R.Y.L.'s Real Family
00:46:15.340 : en:The Memory Chip
00:53:48.926 : en:Terminating Youth Lifeform
00:58:04.682 : en:Human Emotions
01:09:50.253 : en:More Than A Machine
01:19:48.768 : en:You Are Real
01:26:16.038 : en:Flight Plans
01:32:33.165 : en:Home
• Исходник видео WEB-DL Amazon.
• В кадре, временами, присутствует логотип телеканала "STARZ".
piratbit.cc



Скачать Дэрил через торрент http://c.radikal.ru/c41/1806/29/81647491d3d8.png Скачать фильм Дэрил через торрент бесплантно в хорошем качестве О фильме: Молодая супружеская пара усыновляет найденного в лесу мальчика, который страдает частичной потерей памяти, но обладает ... 10 10 2
Торрент: Зарегистрирован [2019-07-14 13:29] · скачан: 7 раз
Статус: √ проверено
Размер: 7.41 GB
Как cкачать? Как скачать Дэрил через торрент | qTorrent


>> Регистрируемся здесь <<






Отзывы и комментарии о схеме читаем и пишем здесь: ---> Отзывы и комментарии о схеме

Новые благодарочки в телеграм довольных пользователей:
скриншот   скриншот   скриншот   скриншот   скриншот
    Дорогой пользователь! Огромная просьба, поблагодарите релизера, оцените раздачу и оставьте свои комментарий, если Вы скачали Дэрил через торрент бесплатно! Внесите свою лепту в развитие PiratBit!
    Комментировать посты могут только пользователи прошедшие не сложную регистрацию
    Показать сообщения:    

    Дэрил через торрент
    Скачать бесплатно Дэрил
    Дэрил скачать торрент
    Дэрил смотреть онлайн
    Cкачать фильм Дэрил бесплатно
    Дэрил скачать торрент в хорошем качестве
    Дэрил смотреть онлайн бесплатно в хорошем качестве


    Вы не можете начинать темы
    Вы не можете отвечать на сообщения
    Вы не можете редактировать свои сообщения
    Вы не можете удалять свои сообщения
    Вы не можете голосовать в опросах
    Вы не можете прикреплять файлы к сообщениям
    Вы можете скачивать файлы