iTunes

1+1

iTunes

мы

iTunes

1

1 сезон

Чернобыль

1 сезон

Ральф против интернета

Лицензия

ПШазам

8 сезон

Игра престолов

Лицензия

30
pack

ВАЖНО

!!Акция!!

Alien_RageХит недели

RePack

Resident Evil 21

ИГРА 18+

pack

RePack

Metro:Exodus

!!Акция!!

Alien_Rage

RePack

fifa19

RePack

Assassins Creed: Odyssey

RePack

NEED FOR SPEED™ PAYBACK

3 сезон

9 сезон

Бесстыжие 9 сезон

Все сериалы

все сериалы на PB.wtf

RePack

FAR CRY 5
Ребята, катастрофически не хватает 2730р. для оплаты серверов за ИЮНЬ (всвязи с блокировками трафик упал в 3 раза), 1-2р., выручайте.
  

Снайпер / Sniper (Луис Льоса) [1992 г., боевик, триллер, военный, BDRemux 1080p] [GER Transfer] MVO + DVO + 7xAVO - KORSAR piratbit.cc

Снайпер через торрент piratbit.cc

Раздают: 1 [ 0 KB/s ]
Размер: 20.12 GB | Добавлен: 4 д. назад | Торрент скачан:2 раза
Скачать  

14-07-2019 13:41 Снайпер Скачать торрент  

Снайпер / Sniper
Год выпуска: 1992
Страна: США , Перу
Жанр: Боевик, триллер, военный
Продолжительность: 01:39:01
Перевод: Профессиональный многоголосый, профессиональный двухголосый, авторский одноголосый
Субтитры: Русские, английские
Режиссёр: Луис Льоса
В ролях: Том Беренджер, Билли Зейн, Дж.Т. Уолш, Аден Янг, Кен Рэдли, Рейнальдо Аренас, Гэри Суонсон, Хэнк Гаррет, Фредерик Миральотта, Ванесса Стил, Карлос Алварез, Тайлер Коппин, Тео Геберт, Эдвард Уайли, Уильям Куртин, Ховард Боссе, Дон Бейти, Радж Сидху, Рой Эдмондс, Джонни Раен, Лури Кортез, Хорхе Бустаманте, Рекс Линн, Энтони Сзето
Описание: Два снайпера. Том Бекет и Ричард Миллер, получают смертельно опасное задание: в джунглях Центральной Америки найти базу колумбийских наркодельцов, проникнуть внутрь и ликвидировать главаря. Возможна только одна попытка, один выстрел.

rating

Качество: BDRemux 1080p
Формат: MKV
Видео: MPEG-4 AVC, 1920x1080, 18000 kbps, 23.976 fps
Аудио 01: Russian: 48 kHz, Dolby Digital Audio, 5.1 ch, 448 kbps - MVO, R5
Аудио 02: Russian: 48 kHz, Dolby Digital Audio, 2.0 ch, 192 kbps - DVO, НТВ
Аудио 03: Russian: 48 kHz, DTS-HD Master Audio, 5.1 ch, 2201 kbps - AVO, Д. Есарев
Аудио 04: Russian: 48 kHz, DTS-HD Master Audio, 5.1 ch, 1983 kbps - AVO, Д. Пучков
Аудио 05: Russian: 48 kHz, DTS-HD Master Audio, 5.1 ch, 1993 kbps - AVO, А. Гаврилов
Аудио 06: Russian: 48 kHz, DTS-HD Master Audio, 5.1 ch, 1717 kbps - AVO, Ю. Живов
Аудио 07: Russian: 48 kHz, Dolby Digital Audio, 2.0 ch, 192 kbps - AVO, Л. Володарский
Аудио 08: Russian: 48 kHz, Dolby Digital Audio, 2.0 ch, 192 kbps - AVO, В. Горчаков
Аудио 09: Russian: 48 kHz, Dolby Digital Audio, 2.0 ch, 192 kbps - AVO, М. Латышев
Аудио 10: English: 48 kHz, DTS-HD Master Audio, 5.1 ch, 1978 kbps - Оригинал

Релиз от:


Общее
Уникальный идентификатор : 249326613402003835284282143210932972437 (0xBB928F1F1A9973A883A1F918B142AB95)
Полное имя : Sniper.1992.GER.Transfer.BDRemux.1080p.KORSAR.mkv
Формат : Matroska
Версия формата : Version 2
Размер файла : 20,1 Гбайт
Продолжительность : 1 ч. 39 м.
Режим общего битрейта : Переменный
Общий поток : 29,1 Мбит/сек
Название фильма : Sniper.1992.GER.Transfer.BDRemux.1080p.KORSAR
Дата кодирования : UTC 2018-12-24 16:44:57
Программа кодирования : mkvmerge v5.8.0 ('No Sleep / Pillow') built on Sep 2 2012 15:37:04
Библиотека кодирования : libebml v1.2.3 + libmatroska v1.3.0

Видео
Идентификатор : 1
Формат : AVC
Формат/Информация : Advanced Video Codec
Профиль формата : High@L4.1
Параметр CABAC формата : Да
Параметр RefFrames формата : 3 кадра
Идентификатор кодека : V_MPEG4/ISO/AVC
Продолжительность : 1 ч. 39 м.
Вид битрейта : Переменный
Битрейт : 18,0 Мбит/сек
Максимальный битрейт : 36,0 Мбит/сек
Ширина : 1920 пикселей
Высота : 1080 пикселей
Соотношение сторон : 16:9
Режим частоты кадров : Постоянный
Частота кадров : 23,976 (24000/1001) кадра/сек
Стандарт вещания : NTSC
Цветовое пространство : YUV
Субдискретизация насыщенности : 4:2:0
Битовая глубина : 8 бит
Тип развёртки : Прогрессивная
Заголовок : Sniper.1992.GER.Transfer.BDRemux.1080p.KORSAR
Язык : English
Default : Да
Forced : Нет
Цветовой диапазон : Limited
Основные цвета : BT.709
Характеристики трансфера : BT.709
Коэффициенты матрицы : BT.709

Аудио #1
Идентификатор : 2
Формат : AC-3
Формат/Информация : Audio Coding 3
Параметр Endianness формата : Big
Идентификатор кодека : A_AC3
Продолжительность : 1 ч. 39 м.
Вид битрейта : Постоянный
Битрейт : 448 Кбит/сек
Каналы : 6 каналов
Расположение каналов : Front: L C R, Side: L R, LFE
Частота : 48,0 КГц
Частота кадров : 31,250 кадров/сек (1536 SPF)
Битовая глубина : 16 бит
Метод сжатия : С потерями
Размер потока : 317 Мбайт (2%)
Заголовок : MVO, R5
Язык : Russian
Default : Да
Forced : Нет

Аудио #2
Идентификатор : 3
Формат : AC-3
Формат/Информация : Audio Coding 3
Параметр Endianness формата : Big
Идентификатор кодека : A_AC3
Продолжительность : 1 ч. 39 м.
Вид битрейта : Постоянный
Битрейт : 192 Кбит/сек
Каналы : 2 канала
Расположение каналов : Front: L R
Частота : 48,0 КГц
Частота кадров : 31,250 кадров/сек (1536 SPF)
Битовая глубина : 16 бит
Метод сжатия : С потерями
Размер потока : 136 Мбайт (1%)
Заголовок : DVO, НТВ
Язык : Russian
Default : Нет
Forced : Нет

Аудио #3
Идентификатор : 4
Формат : DTS
Формат/Информация : Digital Theater Systems
Профиль формата : MA / Core
Режим : 16
Параметр Endianness формата : Big
Идентификатор кодека : A_DTS
Продолжительность : 1 ч. 39 м.
Вид битрейта : Переменный / Постоянный
Битрейт : Неизвестно / 1509 Кбит/сек
Каналы : 6 каналов
Расположение каналов : Front: L C R, Side: L R, LFE
Частота : 48,0 КГц
Частота кадров : 93,750 кадра/сек (512 SPF)
Битовая глубина : 16 бит
Метод сжатия : Без потерь / Lossy
Заголовок : AVO, Д. Есарев
Язык : Russian
Default : Нет
Forced : Нет

Аудио #4
Идентификатор : 5
Формат : DTS
Формат/Информация : Digital Theater Systems
Профиль формата : MA / Core
Режим : 16
Параметр Endianness формата : Big
Идентификатор кодека : A_DTS
Продолжительность : 1 ч. 39 м.
Вид битрейта : Переменный / Постоянный
Битрейт : Неизвестно / 1509 Кбит/сек
Каналы : 6 каналов
Расположение каналов : Front: L C R, Side: L R, LFE
Частота : 48,0 КГц
Частота кадров : 93,750 кадра/сек (512 SPF)
Битовая глубина : 16 бит
Метод сжатия : Без потерь / Lossy
Заголовок : AVO, Д. Пучков
Язык : Russian
Default : Нет
Forced : Нет

Аудио #5
Идентификатор : 6
Формат : DTS
Формат/Информация : Digital Theater Systems
Профиль формата : MA / Core
Режим : 16
Параметр Endianness формата : Big
Идентификатор кодека : A_DTS
Продолжительность : 1 ч. 39 м.
Вид битрейта : Переменный / Постоянный
Битрейт : Неизвестно / 1509 Кбит/сек
Каналы : 6 каналов
Расположение каналов : Front: L C R, Side: L R, LFE
Частота : 48,0 КГц
Частота кадров : 93,750 кадра/сек (512 SPF)
Битовая глубина : 16 бит
Метод сжатия : Без потерь / Lossy
Заголовок : AVO, А. Гаврилов
Язык : Russian
Default : Нет
Forced : Нет

Аудио #6
Идентификатор : 7
Формат : DTS
Формат/Информация : Digital Theater Systems
Профиль формата : MA / Core
Режим : 16
Параметр Endianness формата : Big
Идентификатор кодека : A_DTS
Продолжительность : 1 ч. 39 м.
Вид битрейта : Переменный / Постоянный
Битрейт : Неизвестно / 768 Кбит/сек
Каналы : 6 каналов
Расположение каналов : Front: L C R, Side: L R, LFE
Частота : 48,0 КГц
Частота кадров : 93,750 кадра/сек (512 SPF)
Битовая глубина : 16 бит
Метод сжатия : Без потерь / Lossy
Заголовок : AVO, Ю. Живов
Язык : Russian
Default : Нет
Forced : Нет

Аудио #7
Идентификатор : 8
Формат : AC-3
Формат/Информация : Audio Coding 3
Параметр Endianness формата : Big
Идентификатор кодека : A_AC3
Продолжительность : 1 ч. 39 м.
Вид битрейта : Постоянный
Битрейт : 192 Кбит/сек
Каналы : 2 канала
Расположение каналов : Front: L R
Частота : 48,0 КГц
Частота кадров : 31,250 кадров/сек (1536 SPF)
Битовая глубина : 16 бит
Метод сжатия : С потерями
Размер потока : 136 Мбайт (1%)
Заголовок : AVO, Л. Володарский
Язык : Russian
Default : Нет
Forced : Нет

Аудио #8
Идентификатор : 9
Формат : AC-3
Формат/Информация : Audio Coding 3
Параметр Endianness формата : Big
Идентификатор кодека : A_AC3
Продолжительность : 1 ч. 39 м.
Вид битрейта : Постоянный
Битрейт : 192 Кбит/сек
Каналы : 2 канала
Расположение каналов : Front: L R
Частота : 48,0 КГц
Частота кадров : 31,250 кадров/сек (1536 SPF)
Битовая глубина : 16 бит
Метод сжатия : С потерями
Размер потока : 136 Мбайт (1%)
Заголовок : AVO, В. Горчаков
Язык : Russian
Default : Нет
Forced : Нет

Аудио #9
Идентификатор : 10
Формат : AC-3
Формат/Информация : Audio Coding 3
Параметр Endianness формата : Big
Идентификатор кодека : A_AC3
Продолжительность : 1 ч. 39 м.
Вид битрейта : Постоянный
Битрейт : 192 Кбит/сек
Каналы : 2 канала
Расположение каналов : Front: L R
Частота : 48,0 КГц
Частота кадров : 31,250 кадров/сек (1536 SPF)
Битовая глубина : 16 бит
Метод сжатия : С потерями
Размер потока : 136 Мбайт (1%)
Заголовок : AVO, М. Латышев
Язык : Russian
Default : Нет
Forced : Нет

Аудио #10
Идентификатор : 11
Формат : DTS
Формат/Информация : Digital Theater Systems
Профиль формата : MA / Core
Режим : 16
Параметр Endianness формата : Big
Идентификатор кодека : A_DTS
Продолжительность : 1 ч. 39 м.
Вид битрейта : Переменный / Постоянный
Битрейт : Неизвестно / 1509 Кбит/сек
Каналы : 6 каналов
Расположение каналов : Front: L C R, Side: L R, LFE
Частота : 48,0 КГц
Частота кадров : 93,750 кадра/сек (512 SPF)
Битовая глубина : 16 бит
Метод сжатия : Без потерь / Lossy
Заголовок : Оригинал
Язык : English
Default : Нет
Forced : Нет

Текст #1
Идентификатор : 12
Формат : UTF-8
Идентификатор кодека : S_TEXT/UTF8
Идентификатор кодека/Информация : UTF-8 Plain Text
Язык : Russian
Default : Нет
Forced : Нет

Текст #2
Идентификатор : 13
Формат : UTF-8
Идентификатор кодека : S_TEXT/UTF8
Идентификатор кодека/Информация : UTF-8 Plain Text
Язык : English
Default : Нет
Forced : Нет

Меню
00:00:00.000 : en:Chapter 1
00:07:04.757 : en:Chapter 2
00:16:06.048 : en:Chapter 3
00:25:32.113 : en:Chapter 4
00:32:29.906 : en:Chapter 5
00:41:24.815 : en:Chapter 6
00:48:45.255 : en:Chapter 7
00:56:52.492 : en:Chapter 8
01:04:20.898 : en:Chapter 9
01:15:30.901 : en:Chapter 10
01:22:51.341 : en:Chapter 11
01:29:28.821 : en:Chapter 12
piratbit.cc



Скачать Снайпер через торрент https://i6.imageban.ru/out/2019/07/14/7ae28bfd5f1fc89de5708c98fd5f60dd.png Скачать фильм Снайпер через торрент бесплантно в хорошем качестве Описание: Два снайпера. Том Бекет и Ричард Миллер, получают смертельно опасное задание: в джунглях Центральной Америки найти базу ... 5 10 1
Торрент: Зарегистрирован [2019-07-14 13:41] · скачан: 2 раз
Статус: √ проверено
Размер: 20.12 GB
Как cкачать? Как скачать Снайпер через торрент | qTorrent


>> Регистрируемся здесь <<






Отзывы и комментарии о схеме читаем и пишем здесь: ---> Отзывы и комментарии о схеме

Новые благодарочки в телеграм довольных пользователей:
скриншот   скриншот   скриншот   скриншот   скриншот
    Дорогой пользователь! Огромная просьба, поблагодарите релизера, оцените раздачу и оставьте свои комментарий, если Вы скачали Снайпер через торрент бесплатно! Внесите свою лепту в развитие PiratBit!
    Комментировать посты могут только пользователи прошедшие не сложную регистрацию
    Показать сообщения:    

    Снайпер через торрент
    Скачать бесплатно Снайпер
    Снайпер скачать торрент
    Снайпер смотреть онлайн
    Cкачать фильм Снайпер бесплатно
    Снайпер скачать торрент в хорошем качестве
    Снайпер смотреть онлайн бесплатно в хорошем качестве


    Вы не можете начинать темы
    Вы не можете отвечать на сообщения
    Вы не можете редактировать свои сообщения
    Вы не можете удалять свои сообщения
    Вы не можете голосовать в опросах
    Вы не можете прикреплять файлы к сообщениям
    Вы можете скачивать файлы