iTunes

1+1

iTunes

мы

iTunes

1

1 сезон

Чернобыль

1 сезон

Ральф против интернета

Лицензия

ПШазам

8 сезон

Игра престолов

Лицензия

30
pack

ВАЖНО

!!Акция!!

Alien_RageХит недели

RePack

Resident Evil 21

ИГРА 18+

pack

RePack

Metro:Exodus

!!Акция!!

Alien_Rage

RePack

fifa19

RePack

Assassins Creed: Odyssey

RePack

NEED FOR SPEED™ PAYBACK

3 сезон

9 сезон

Бесстыжие 9 сезон

Все сериалы

все сериалы на PB.wtf

RePack

FAR CRY 5
Ребята, катастрофически не хватает 2730р. для оплаты серверов за ИЮНЬ (всвязи с блокировками трафик упал в 3 раза), 1-2р., выручайте.
  

Большая маленькая ложь / Big Little Lies / Сезон: 2 / Серии: 1-5 из 7 (Андреа Арнольд) [2019, Драма, WEB-DL 720p] [MVO] (NewStudio) piratbit.cc

Большая маленькая ложь через торрент piratbit.cc

Раздают: 6 [ 160 KB/s ] Качают: 6 [ 0 KB/s ]
Размер: 9.65 GB | Добавлен: 4 д. назад | Торрент скачан:14 раз
Скачать  

14-07-2019 13:41 Большая маленькая ложь Скачать торрент  

Большая маленькая ложь / Big Little Lies Год выпуска: 2019
Страна: США
Жанр: Драма
Продолжительность: ~00:44:00

Перевод: Профессиональный (многоголосый закадровый) NewStudio скриншот  

Режиссёр: Андреа Арнольд

В ролях: Шейлин Вудли, Риз Уизерспун, Николь Кидман, Мэрил Стрип, Александр Скарсгард, Адам Скотт, Джеймс Таппер, Лора Дерн, Иэн Эрмитаж, Сара Бэйкер, Ларри Бейтс

Описание: Первый сезон полностью экранизировал роман Лианы Мориарти, жертва и убийца, которыми могли стать любые герои, в конце оказались раскрыты. К звездному квинтету (Николь Кидман, Риз Уизерспун, Шейлин Вудли, Лора Дерн, Зои Кравиц) присоединилась сама Мэрил Стрип, которая, по слухам, настолько полюбила «Большую маленькую ложь», что согласилась на второй сезон, даже не заглянув в сценарий. В продолжении «монтерейская пятерка» — так теперь называют главных героинь в живописном городишке — столкнется с последствиями той роковой ночи. После ложных свидетельских показаний никого из них не покидают страхи и призраки прошлого. Особенно тяжело приходится Бонни и Селесте, чья проницательная свекровь (Стрип) не может поверить в историю с несчастным случаем.

rating

Качество: WEB-DL 720p
Контейнер: MKV
Видео: MPEG4 Video (H264) 1280x720, 23.976fps ~ 4600 kb/s
Аудио 1 Rus (NewStudio): AC3, 48 kHz, 6 ch, 448 Кбит/сек
Аудио 2 Eng: EAC3, 48 kHz, 6 ch, 640 Кбит/сек
Субтитры: нет
Complete name : Big.Little.Lies.S02E01.720p.AMZN.WEB-DL.mkv
Format : Matroska
Format version : Version 4
File size : 1.85 GiB
Duration : 46 min 7 s
Overall bit rate mode : Constant
Overall bit rate : 5 743 kb/s
Encoded date : UTC 2019-06-24 06:32:25
Writing application : mkvmerge v17.0.0 ('Be Ur Friend') 64-bit
Writing library : libebml v1.3.5 + libmatroska v1.4.8

Video
ID : 1
Format : AVC
Format/Info : Advanced Video Codec
Format profile : High@L3.1
Format settings : CABAC / 4 Ref Frames
Format settings, CABAC : Yes
Format settings, ReFrames : 4 frames
Codec ID : V_MPEG4/ISO/AVC
Duration : 46 min 7 s
Bit rate mode : Constant
Bit rate : 4 653 kb/s
Nominal bit rate : 6 000 kb/s
Width : 1 280 pixels
Height : 720 pixels
Display aspect ratio : 16:9
Frame rate mode : Constant
Frame rate : 23.976 (24000/1001) FPS
Color space : YUV
Chroma subsampling : 4:2:0
Bit depth : 8 bits
Scan type : Progressive
Bits/(Pixel*Frame) : 0.211
Stream size : 1.50 GiB (81%)
Default : Yes
Forced : No
Color range : Limited
Color primaries : BT.709
Transfer characteristics : BT.709
Matrix coefficients : BT.709

Audio #1
ID : 2
Format : AC-3
Format/Info : Audio Coding 3
Commercial name : Dolby Digital
Codec ID : A_AC3
Duration : 46 min 7 s
Bit rate mode : Constant
Bit rate : 448 kb/s
Channel(s) : 6 channels
Channel layout : L R C LFE Ls Rs
Sampling rate : 48.0 kHz
Frame rate : 31.250 FPS (1536 SPF)
Bit depth : 16 bits
Compression mode : Lossy
Delay relative to video : 28 ms
Stream size : 148 MiB (8%)
Title : NewStudio
Language : Russian
Service kind : Complete Main
Default : Yes
Forced : No

Audio #2
ID : 3
Format : E-AC-3
Format/Info : Enhanced AC-3
Commercial name : Dolby Digital Plus
Codec ID : A_EAC3
Duration : 46 min 7 s
Bit rate mode : Constant
Bit rate : 640 kb/s
Channel(s) : 6 channels
Channel layout : L R C LFE Ls Rs
Sampling rate : 48.0 kHz
Frame rate : 31.250 FPS (1536 SPF)
Compression mode : Lossy
Delay relative to video : 28 ms
Stream size : 211 MiB (11%)
Language : English
Service kind : Complete Main
Default : No
Forced : No
скриншот  скриншот  скриншот  
piratbit.cc



Скачать Большая маленькая ложь через торрент https://i110.fastpic.ru/big/2019/0624/3d/aa3e22e7b6694db246047e7e8415393d.png Скачать фильм Большая маленькая ложь через торрент бесплантно в хорошем качестве Описание: Первый сезон полностью экранизировал роман Лианы Мориарти, жертва и убийца, которыми могли стать любые герои, в конце оказались ... 10 10 1
Торрент: Зарегистрирован [2019-07-14 13:41] · скачан: 14 раз
Статус: √ проверено
Размер: 9.65 GB
Как cкачать? Как скачать Большая маленькая ложь через торрент | qTorrent

% Раздел Тема Автор DL S | L
Зарубежные сериалы [ 17.05 GB ] Большая маленькая ложь / Big Little Lies / Сезон: 2 / Серии: 1-5 из 7 [2019 WEB-DL 1080p] MVO [TVShows] bober100 Скачать
1 | 3


>> Регистрируемся здесь <<






Отзывы и комментарии о схеме читаем и пишем здесь: ---> Отзывы и комментарии о схеме

Новые благодарочки в телеграм довольных пользователей:
скриншот   скриншот   скриншот   скриншот   скриншот
    Дорогой пользователь! Огромная просьба, поблагодарите релизера, оцените раздачу и оставьте свои комментарий, если Вы скачали Большая маленькая ложь через торрент бесплатно! Внесите свою лепту в развитие PiratBit!
    Комментировать посты могут только пользователи прошедшие не сложную регистрацию
    Показать сообщения:    

    Большая маленькая ложь через торрент
    Скачать бесплатно Большая маленькая ложь
    Большая маленькая ложь скачать торрент
    Большая маленькая ложь смотреть онлайн
    Cкачать фильм Большая маленькая ложь бесплатно
    Большая маленькая ложь скачать торрент в хорошем качестве
    Большая маленькая ложь смотреть онлайн бесплатно в хорошем качестве


    Вы не можете начинать темы
    Вы не можете отвечать на сообщения
    Вы не можете редактировать свои сообщения
    Вы не можете удалять свои сообщения
    Вы не можете голосовать в опросах
    Вы не можете прикреплять файлы к сообщениям
    Вы можете скачивать файлы