iTunes

1+1

iTunes

мы

iTunes

1

1 сезон

Чернобыль

1 сезон

Ральф против интернета

Лицензия

ПШазам

8 сезон

Игра престолов

Лицензия

30
pack

ВАЖНО

!!Акция!!

Alien_RageХит недели

RePack

Resident Evil 21

ИГРА 18+

pack

RePack

Metro:Exodus

!!Акция!!

Alien_Rage

RePack

fifa19

RePack

Assassins Creed: Odyssey

RePack

NEED FOR SPEED™ PAYBACK

3 сезон

9 сезон

Бесстыжие 9 сезон

Все сериалы

все сериалы на PB.wtf

RePack

FAR CRY 5
Ребята, катастрофически не хватает 2730р. для оплаты серверов за ИЮНЬ (всвязи с блокировками трафик упал в 3 раза), 1-2р., выручайте.
  

Жил был мошенник / There Was a Crooked Man... (Джозеф Лео Манкевич) [1970 г., Вестерн, комедия, боевик, драма, WEB-DL 1080p от KORSAR][MVO] piratbit.cc

Жил был мошенник через торрент piratbit.cc

Раздают: 1 [ 0 KB/s ]
Размер: 11.63 GB | Добавлен: 4 д. назад | Торрент скачан:0 раз
Скачать  

14-07-2019 13:43 Жил был мошенник Скачать торрент  

Название: Жил был мошенник / Жил был обманщик
Оригинальное название: There Was a Crooked Man...
Год выпуска: 1970
Жанр: Вестерн, комедия, боевик, драма

Режиссер: Джозеф Лео Манкевич
В ролях: Кирк Дуглас, Генри Фонда, Хьюм Кронин, Уоррен Оутс, Бёрджесс Мередит, Джон Рэндольф, Ли Грант, Артур О`Коннелл, Мартин Габел, Майкл Блоджет, Алан Хейл мл., Виктор Френч, Джинн Купер, Клаудия МаНил

О фильме: Мошенник Пэрис Питман попадает на десять лет в окружную тюрьму. Но находит способ сократить срок благодаря огромному богатству, спрятанному в укромном месте. Питман начинает манипулировать всеми, кто хоть как-то может помочь ему достичь своей цели — побега.

rating

Продолжительность: 02:03:24
Выпущено: США, A Kinney National Company
Перевод: Профессиональный многоголосый

Качество: WEB-DL 1080p
Формат: MKV
Видео: MPEG-4 AVC, 12,8 Мбит/сек, 1920x1080, 23,976 кадра/сек
Аудио #1: AC3, 2 ch, 192 Кбит/сек | Русский, профессиональный (многоголосый закадровый) Петербург-5 канал
Аудио #2: EAC3, 2 ch, 224 Кбит/сек | Английский, оригинал
Субтитры: Английские
Навигация по главам: Есть

Релиз от:
Общее
Уникальный идентификатор : 172950432121200719930158037611343397106 (0x821D0AA7105DA520BABD255891EE40F2)
Полное имя : Жил.был.мошенник.1970.WEB-DL.1080p.mkv
Формат : Matroska
Версия формата : Version 2
Размер файла : 11,6 Гбайт
Продолжительность : 2 ч. 3 м.
Режим общего битрейта : Переменный
Общий поток : 13,5 Мбит/сек
Дата кодирования : UTC 2018-06-10 22:48:24
Программа кодирования : mkvmerge v5.8.0 ('No Sleep / Pillow') built on Sep 2 2012 15:37:04
Библиотека кодирования : libebml v1.2.3 + libmatroska v1.3.0

Видео
Идентификатор : 1
Формат : AVC
Формат/Информация : Advanced Video Codec
Профиль формата : High@L4
Настройки формата : CABAC / 4 Ref Frames
Параметр CABAC формата : Да
Параметр RefFrames формата : 4 кадра
Идентификатор кодека : V_MPEG4/ISO/AVC
Продолжительность : 2 ч. 3 м.
Вид битрейта : Переменный
Битрейт : 12,8 Мбит/сек
Максимальный битрейт : 15,0 Мбит/сек
Ширина : 1920 пикселей
Высота : 1080 пикселей
Соотношение сторон : 16:9
Режим частоты кадров : Постоянный
Частота кадров : 23,976 (24000/1001) кадра/сек
Цветовое пространство : YUV
Субдискретизация насыщенности : 4:2:0
Битовая глубина : 8 бит
Тип развёртки : Прогрессивная
Бит/(Пиксели*Кадры) : 0.258
Размер потока : 11,0 Гбайт (95%)
Язык : English
Default : Да
Forced : Нет
Цветовой диапазон : Limited
Основные цвета : BT.709
Характеристики трансфера : BT.709
Коэффициенты матрицы : BT.709

Аудио #1
Идентификатор : 2
Формат : AC-3
Формат/Информация : Audio Coding 3
Идентификатор кодека : A_AC3
Продолжительность : 2 ч. 3 м.
Вид битрейта : Постоянный
Битрейт : 192 Кбит/сек
Каналы : 2 канала
Расположение каналов : Front: L R
Частота : 48,0 КГц
Частота кадров : 31,250 кадров/сек (1536 SPF)
Битовая глубина : 16 бит
Метод сжатия : С потерями
Размер потока : 169 Мбайт (1%)
Заголовок : MVO | 5 канал
Язык : Russian
По умолчанию : Да
Принудительно : Нет

Аудио #2
Идентификатор : 3
Формат : E-AC-3
Формат/Информация : Enhanced Audio Coding 3
Идентификатор кодека : A_EAC3
Продолжительность : 2 ч. 3 м.
Вид битрейта : Постоянный
Битрейт : 224 Кбит/сек
Каналы : 2 канала
Расположение каналов : Front: L R
Частота : 48,0 КГц
Частота кадров : 187,500 кадров/сек (256 SPF)
Метод сжатия : С потерями
Размер потока : 198 Мбайт (2%)
Заголовок : Original
Язык : English
По умолчанию : Нет
Принудительно : Нет

Текст
Идентификатор : 4
Формат : UTF-8
Идентификатор кодека : S_TEXT/UTF8
Идентификатор кодека/Информация : UTF-8 Plain Text
Заголовок : SDH
Язык : English
По умолчанию : Нет
Принудительно : Нет

Меню
00:00:00.000 : en:Chapter 01
00:12:23.305 : en:Chapter 02
00:19:52.020 : en:Chapter 03
00:30:17.628 : en:Chapter 04
00:42:53.759 : en:Chapter 05
00:52:26.831 : en:Chapter 06
01:01:52.909 : en:Chapter 07
01:13:18.886 : en:Chapter 08
01:24:25.510 : en:Chapter 09
01:32:22.904 : en:Chapter 10
01:42:55.744 : en:Chapter 11
01:51:00.771 : en:Chapter 12
• Исходник видео WEB-DL Amazon.
piratbit.cc



Скачать Жил был мошенник через торрент http://c.radikal.ru/c02/1806/5d/0715c9d7a388.png Скачать фильм Жил был мошенник через торрент бесплантно в хорошем качестве О фильме: Мошенник Пэрис Питман попадает на десять лет в окружную тюрьму. Но находит способ сократить срок благодаря огромному богатству, ... 10 10 1
Info! Золотая раздача, скачанное не засчитывается.
Торрент: Зарегистрирован [2019-07-14 13:43] · скачан: 0 раз
Статус: √ проверено
Размер: 11.63 GB
Как cкачать? Как скачать Жил был мошенник через торрент | qTorrent


>> Регистрируемся здесь <<






Отзывы и комментарии о схеме читаем и пишем здесь: ---> Отзывы и комментарии о схеме

Новые благодарочки в телеграм довольных пользователей:
скриншот   скриншот   скриншот   скриншот   скриншот
    Дорогой пользователь! Огромная просьба, поблагодарите релизера, оцените раздачу и оставьте свои комментарий, если Вы скачали Жил был мошенник через торрент бесплатно! Внесите свою лепту в развитие PiratBit!
    Комментировать посты могут только пользователи прошедшие не сложную регистрацию
    Показать сообщения:    

    Жил был мошенник через торрент
    Скачать бесплатно Жил был мошенник
    Жил был мошенник скачать торрент
    Жил был мошенник смотреть онлайн
    Cкачать фильм Жил был мошенник бесплатно
    Жил был мошенник скачать торрент в хорошем качестве
    Жил был мошенник смотреть онлайн бесплатно в хорошем качестве


    Вы не можете начинать темы
    Вы не можете отвечать на сообщения
    Вы не можете редактировать свои сообщения
    Вы не можете удалять свои сообщения
    Вы не можете голосовать в опросах
    Вы не можете прикреплять файлы к сообщениям
    Вы можете скачивать файлы