iTunes

1+1

iTunes

мы

iTunes

1

1 сезон

Чернобыль

1 сезон

Ральф против интернета

Лицензия

ПШазам

8 сезон

Игра престолов

Лицензия

30
pack

ВАЖНО

!!Акция!!

Alien_RageХит недели

RePack

Resident Evil 21

ИГРА 18+

pack

RePack

Metro:Exodus

!!Акция!!

Alien_Rage

RePack

fifa19

RePack

Assassins Creed: Odyssey

RePack

NEED FOR SPEED™ PAYBACK

3 сезон

9 сезон

Бесстыжие 9 сезон

Все сериалы

все сериалы на PB.wtf

RePack

FAR CRY 5
Ребята, катастрофически не хватает 2730р. для оплаты серверов за ИЮНЬ (всвязи с блокировками трафик упал в 3 раза), 1-2р., выручайте.
  

Милые кости / The Lovely Bones (Питер Джексон) [2009, фэнтези, триллер, драма, криминал, детектив, HDTV 1080p] [Open Matte Pan & Scan] [MVO] (Кириллица) + [Dub] (Пифагор) piratbit.cc

Милые кости через торрент piratbit.cc

Раздают: 4 [ 11 KB/s ]
Размер: 4.75 GB | Добавлен: 4 д. назад | Торрент скачан:16 раз
Скачать  

14-07-2019 14:43 Милые кости Скачать торрент  

Милые кости
Милые сердцу связи
The Lovely Bones
Open Matte
Pan & Scan
Страна: США, Великобритания, Новая Зеландия
Жанр: фэнтези, триллер, драма, криминал, детектив
Год выпуска: 2009
Продолжительность: 02:09:00
Перевод 1: Профессиональный (многоголосый закадровый) студия Кириллица
Перевод 2: Профессиональный (дублированный) студия Пифагор
Субтитры: русские, английские
Режиссер: Питер Джексон / Peter Jackson

В ролях: Сирша Ронан, Марк Уолберг, Рэйчел Вайс, Сьюзен Сарандон, Стэнли Туччи, Майкл Империоли, Роуз МакАйвер, Рис Ричи, Кэролин Дандо, Никки СуХу, Эндрю Джеймс Аллен, Джейк Эйбел, ЭйДжей Мичалка, Том МакКарти, Билл Фишер, Анна Джордж, Грег Вуд, Брюс Филлипс, Скотт Эванс
Описание: Фильм рассказывает о переживаниях четырнадцатилетней девушки, изнасилованной и убитой маньяком-соседом. Наблюдая за жизнью домочадцев с небес, героиня мечтает о простых подростковых радостях и жаждет поимки душегуба.

rating
Сэмпл: 1минута 42сек
Качество видео: HDTV 1080p
Формат видео: MKV

Видео: AVC, 1920х1080, 16:9, 25,000 кадров/сек, 4180 Кбит/сек
Аудио 1: AAC, 48,0 КГц, 192 Кбит/сек, 2 канала (многоголосый студия Кириллица)
Аудио 2: AC-3, 48,0 КГц, 448 Кбит/сек, 6 каналов (дубляж)
Аудио 3: AC-3, 48,0 КГц, 448 Кбит/сек, 6 каналов (английская оригинальная дорожка)
Формат субтитров: softsub (SRT)
Общее
Уникальный идентификатор : 183413233640819054279845429073627505809 (0x89FC1A984F8049A2DF72A9101716E491)
Полное имя : Милые кости.2009.HDTV.mkv
Формат : Matroska
Версия формата : Version 4
Размер файла : 4,75 Гбайт
Продолжительность : 2 ч. 9 м.
Режим общего битрейта : Переменный
Общий поток : 5266 Кбит/сек
Название фильма : Милые кости / The Lovely Bones / 2009
Дата кодирования : UTC 2019-03-30 07:19:59
Программа кодирования : mkvmerge v32.0.0 ('Astral Progressions') 32-bit
Библиотека кодирования : libebml v1.3.7 + libmatroska v1.5.0

Видео
Идентификатор : 1
Формат : AVC
Формат/Информация : Advanced Video Codec
Профиль формата : High@L4
Настройки формата : CABAC / 4 Ref Frames
Параметр CABAC формата : Да
Параметр RefFrames формата : 4 кадра
Идентификатор кодека : V_MPEG4/ISO/AVC
Продолжительность : 2 ч. 9 м.
Вид битрейта : Переменный
Битрейт : 4180 Кбит/сек
Максимальный битрейт : 4500 Кбит/сек
Ширина : 1920 пикселей
Высота : 1080 пикселей
Соотношение сторон : 16:9
Режим частоты кадров : Постоянный
Частота кадров : 25,000 кадров/сек
Цветовое пространство : YUV
Субдискретизация насыщенности : 4:2:0
Битовая глубина : 8 бит
Тип развёртки : Прогрессивная
Бит/(Пиксели*Кадры) : 0.081
Размер потока : 3,77 Гбайт (79%)
Заголовок : Милые кости / The Lovely Bones / 2009
Язык : English
Default : Да
Forced : Нет

Аудио #1
Идентификатор : 2
Формат : AAC LC
Формат/Информация : Advanced Audio Codec Low Complexity
Идентификатор кодека : A_AAC-2
Продолжительность : 2 ч. 9 м.
Битрейт : 192 Кбит/сек
Каналы : 2 канала
Channel layout : L R
Частота : 48,0 КГц
Частота кадров : 46,875 кадров/сек (1024 SPF)
Метод сжатия : С потерями
Размер потока : 175 Мбайт (4%)
Заголовок : многоголосый студия Кириллица
Язык : Russian
Default : Да
Forced : Нет

Аудио #2
Идентификатор : 3
Формат : AC-3
Формат/Информация : Audio Coding 3
Коммерческое название : Dolby Digital
Идентификатор кодека : A_AC3
Продолжительность : 2 ч. 9 м.
Вид битрейта : Постоянный
Битрейт : 448 Кбит/сек
Каналы : 6 каналов
Channel layout : L R C LFE Ls Rs
Частота : 48,0 КГц
Частота кадров : 31,250 кадров/сек (1536 SPF)
Битовая глубина : 16 бит
Метод сжатия : С потерями
Размер потока : 413 Мбайт (9%)
Заголовок : дубляж DVD
Язык : Russian
ServiceKind/String : Complete Main
Default : Нет
Forced : Нет

Аудио #3
Идентификатор : 4
Формат : AC-3
Формат/Информация : Audio Coding 3
Коммерческое название : Dolby Digital
Идентификатор кодека : A_AC3
Продолжительность : 2 ч. 9 м.
Вид битрейта : Постоянный
Битрейт : 448 Кбит/сек
Каналы : 6 каналов
Channel layout : L R C LFE Ls Rs
Частота : 48,0 КГц
Частота кадров : 31,250 кадров/сек (1536 SPF)
Битовая глубина : 16 бит
Метод сжатия : С потерями
Размер потока : 413 Мбайт (9%)
Заголовок : оригинал DVD
Язык : English
ServiceKind/String : Complete Main
Default : Нет
Forced : Нет

Текст #1
Идентификатор : 5
Формат : UTF-8
Идентификатор кодека : S_TEXT/UTF8
Идентификатор кодека/Информация : UTF-8 Plain Text
Продолжительность : 2 ч. 8 м.
Битрейт : 47 бит/сек
ElementCount : 1023
Размер потока : 44,8 Кбайт (0%)
Заголовок : русские полные
Язык : Russian
Default : Нет
Forced : Нет

Текст #2
Идентификатор : 6
Формат : UTF-8
Идентификатор кодека : S_TEXT/UTF8
Идентификатор кодека/Информация : UTF-8 Plain Text
Продолжительность : 1 ч. 55 м.
Битрейт : 39 бит/сек
ElementCount : 1001
Размер потока : 33,3 Кбайт (0%)
Заголовок : оригинал
Язык : English
Default : Нет
Forced : Нет
скриншот  скриншот  скриншот  
piratbit.cc



Скачать Милые кости через торрент https://i110.fastpic.ru/big/2019/0330/a1/1e188b7ae587e3c8439c56e2710f24a1.png Скачать фильм Милые кости через торрент бесплантно в хорошем качестве Описание: Фильм рассказывает о переживаниях четырнадцатилетней девушки, изнасилованной и убитой маньяком-соседом. Наблюдая за жизнью ... 9.5 10 2
Торрент: Зарегистрирован [2019-07-14 14:43] · скачан: 16 раз
Статус: √ проверено
Размер: 4.75 GB
Как cкачать? Как скачать Милые кости через торрент | qTorrent

% Раздел Тема Автор DL S | L
Фильмы 2009 [ 2.91 GB ] Милые кости / The Lovely Bones [2009 BDRip-AVC] DUB potroks Скачать
1 | 0
Фильмы 2009 [ 2.05 GB ] Милые кости / The Lovely Bones [x264] [2009 HDRip лицензия] TekkenxD Скачать
1 | 0
Фильмы 2009 [ 1.46 GB ] Милые кости / The Lovely Bones [2009 HDRip лицензия] Sудья Скачать
1 | 0
Фильмы (Blu-ray, BD-Remux, HDDVD) [ 42.68 GB ] Милые кости / The Lovely Bones [2009 1080p BD-Remux] ACFIORENTINA Скачать
1 | 0
Фильмы [HD 720p, 1080p] (Хороший звук DUB, MVO) [ 7.72 GB ] Милые кости / The Lovely Bones [2009 BDRip DUB + оригинал] markfiter Скачать
1 | 0
Фильмы [HD 720p, 1080p] (Хороший звук DUB, MVO) [ 15.7 GB ] Милые кости / The Lovely Bones [2009 BDRip 1080p лицензия] DUB Blu-Ray CEE + VO Ю.Сербин Sub rus + original eng EXEBET Скачать
1 | 0
Фильмы 2009 [ 2.16 GB ] Милые кости / The Lovely Bones [2009 BDRip лицензия] SD Скачать
1 | 0


>> Регистрируемся здесь <<






Отзывы и комментарии о схеме читаем и пишем здесь: ---> Отзывы и комментарии о схеме

Новые благодарочки в телеграм довольных пользователей:
скриншот   скриншот   скриншот   скриншот   скриншот

14-07-2019 15:02 Милые кости Скачать торрент  

Топик был перенесен из форума Фильмы [HD 720p, 1080p] (Хороший звук DUB, MVO) в форум Фильмы (WEB-DL 720p, 1080p)


bober100piratbit.cc



14-07-2019 17:27 Милые кости Скачать торрент  

Фильм добротный.piratbit.cc



    Дорогой пользователь! Огромная просьба, поблагодарите релизера, оцените раздачу и оставьте свои комментарий, если Вы скачали Милые кости через торрент бесплатно! Внесите свою лепту в развитие PiratBit!
    Комментировать посты могут только пользователи прошедшие не сложную регистрацию
    Показать сообщения:    

    Милые кости через торрент
    Скачать бесплатно Милые кости
    Милые кости скачать торрент
    Милые кости смотреть онлайн
    Cкачать фильм Милые кости бесплатно
    Милые кости скачать торрент в хорошем качестве
    Милые кости смотреть онлайн бесплатно в хорошем качестве


    Вы не можете начинать темы
    Вы не можете отвечать на сообщения
    Вы не можете редактировать свои сообщения
    Вы не можете удалять свои сообщения
    Вы не можете голосовать в опросах
    Вы не можете прикреплять файлы к сообщениям
    Вы можете скачивать файлы