iTunes

1+1

iTunes

мы

iTunes

1

1 сезон

Чернобыль

1 сезон

Ральф против интернета

Лицензия

ПШазам

8 сезон

Игра престолов

Лицензия

30
pack

ВАЖНО

!!Акция!!

Alien_RageХит недели

RePack

Resident Evil 21

ИГРА 18+

pack

RePack

Metro:Exodus

!!Акция!!

Alien_Rage

RePack

fifa19

RePack

Assassins Creed: Odyssey

RePack

NEED FOR SPEED™ PAYBACK

3 сезон

9 сезон

Бесстыжие 9 сезон

Все сериалы

все сериалы на PB.wtf

RePack

FAR CRY 5
Ребята, катастрофически не хватает 2730р. для оплаты серверов за ИЮНЬ (всвязи с блокировками трафик упал в 3 раза), 1-2р., выручайте.
  

Камера / The Chamber (Джеймс Фоули) [1996 г., триллер, драма, WEB-DLRip 720p] MVO + DVO - KORSAR piratbit.cc

Камера через торрент piratbit.cc

Раздают: 2 [ 693 KB/s ] Качают: 3 [ 0 KB/s ]
Размер: 5.16 GB | Добавлен: 4 д. назад | Торрент скачан:9 раз
Скачать  

14-07-2019 15:08 Камера Скачать торрент  

Камера / The Chamber
Год выпуска: 1996
Страна: США
Жанр: Триллер, драма
Продолжительность: 01:52:53
Перевод: Профессиональный многоголосый, профессиональный двухголосый
Субтитры: Русские (на надписи), английские, финские, испанские
Режиссёр: Джеймс Фоули
В ролях: Крис О’Доннелл, Джин Хэкмен, Фэй Данауэй, Роберт Проски, Рэймонд Дж. Бэрри, Бо Джексон, Лила Рошон, Дэвид Маршалл Грант, Николас Прайор, Харви Преснелл
Описание: Молодой адвокат Эдам Холл, ведёт дело о помиловании Сэма Кэйхола, бывшего когда-то его наставником в расистской организации, а сейчас сидящего в камере смертников. До приведения в действие смертного приговора остаётся ровно 28 дней и Эдам начинает восстанавливать события, приведшие к приступлению, за которое Сэм осужден. По мере приближения рокового дня исполнения приговора Эдам работает быстрее, стремясь раскрыть семейные тайны и отыскать скрытые ключи к разгадке преступления. Головокружительные открытия и неожиданные повороты событий следуют один за другим, и постепенно Эдам раскрывает ложь и мрачные секреты, которые и приведут его к сенсационной правде.

rating

Качество: WEB-DLRip 720p
Формат: MKV
Видео: MPEG-4 AVC, 1278x544 (2.35:1), 5582 kbps, 23.976 fps
Аудио 1: Russian: 48 kHz, AC3, 2.0 ch, 192 kbps - MVO, 1 канал
Аудио 2: Russian: 48 kHz, AC3, 2.0 ch, 192 kbps - DVO
Аудио 3: English: 48 kHz, AC3, 5.1 ch, 448 kbps - Оригинал

Релиз от:


Общее
Уникальный идентификатор : 199897740560735224962641504972629856366 (0x9662E78920432B5295ECF1B54007D06E)
Полное имя : Камера_1996_WEB-DLRip_720p_KORSAR.mkv
Формат : Matroska
Версия формата : Version 2
Размер файла : 5,16 Гбайт
Продолжительность : 1 ч. 52 м.
Общий поток : 6544 Кбит/сек
Название фильма : Камера_1996_WEB-DLRip_720p_KORSAR
Дата кодирования : UTC 2018-05-18 13:48:09
Программа кодирования : mkvmerge v5.8.0 ('No Sleep / Pillow') built on Sep 2 2012 15:37:04
Библиотека кодирования : libebml v1.2.3 + libmatroska v1.3.0

Видео
Идентификатор : 1
Формат : AVC
Формат/Информация : Advanced Video Codec
Профиль формата : High@L4.1
Параметр CABAC формата : Да
Параметр RefFrames формата : 12 кадров
Идентификатор кодека : V_MPEG4/ISO/AVC
Продолжительность : 1 ч. 52 м.
Битрейт : 5582 Кбит/сек
Ширина : 1278 пикселей
Высота : 544 пикселя
Соотношение сторон : 2,35:1
Режим частоты кадров : Постоянный
Частота кадров : 23,976 (24000/1001) кадра/сек
Цветовое пространство : YUV
Субдискретизация насыщенности : 4:2:0
Битовая глубина : 8 бит
Тип развёртки : Прогрессивная
Бит/(Пиксели*Кадры) : 0.335
Размер потока : 4,40 Гбайт (85%)
Библиотека кодирования : x264 core 152 r2851kMod ba24899
Настройки программы : cabac=1 / ref=12 / deblock=1:-3:-2 / analyse=0x3:0x113 / me=umh / subme=10 / psy=1 / fade_compensate=0.00 / psy_rd=1.05:0.10 / mixed_ref=1 / me_range=40 / chroma_me=1 / trellis=2 / 8x8dct=1 / cqm=0 / deadzone=21,11 / fast_pskip=1 / chroma_qp_offset=-3 / threads=12 / lookahead_threads=3 / sliced_threads=0 / nr=0 / decimate=1 / interlaced=0 / bluray_compat=0 / constrained_intra=0 / bframes=16 / b_pyramid=2 / b_adapt=2 / b_bias=0 / direct=1 / weightb=1 / open_gop=0 / weightp=2 / keyint=240 / keyint_min=23 / scenecut=40 / intra_refresh=0 / rc=crf / mbtree=0 / crf=18.0000 / qcomp=0.63 / qpmin=0 / qpmax=39 / qpstep=4 / ip_ratio=1.40 / pb_ratio=1.30 / aq=2:0.90
Язык : English
Default : Да
Forced : Нет
Цветовой диапазон : Limited
Основные цвета : BT.709
Характеристики трансфера : BT.709
Коэффициенты матрицы : BT.709

Аудио #1
Идентификатор : 2
Формат : AC-3
Формат/Информация : Audio Coding 3
Параметр Endianness формата : Big
Идентификатор кодека : A_AC3
Продолжительность : 1 ч. 52 м.
Вид битрейта : Постоянный
Битрейт : 192 Кбит/сек
Каналы : 2 канала
Расположение каналов : Front: L R
Частота : 48,0 КГц
Частота кадров : 31,250 кадров/сек (1536 SPF)
Битовая глубина : 16 бит
Метод сжатия : С потерями
Размер потока : 155 Мбайт (3%)
Заголовок : MVO, 1 канал
Язык : Russian
Default : Да
Forced : Нет

Аудио #2
Идентификатор : 3
Формат : AC-3
Формат/Информация : Audio Coding 3
Параметр Endianness формата : Big
Идентификатор кодека : A_AC3
Продолжительность : 1 ч. 52 м.
Вид битрейта : Постоянный
Битрейт : 192 Кбит/сек
Каналы : 2 канала
Расположение каналов : Front: L R
Частота : 48,0 КГц
Частота кадров : 31,250 кадров/сек (1536 SPF)
Битовая глубина : 16 бит
Метод сжатия : С потерями
Размер потока : 155 Мбайт (3%)
Заголовок : DVO
Язык : Russian
Default : Нет
Forced : Нет

Аудио #3
Идентификатор : 4
Формат : AC-3
Формат/Информация : Audio Coding 3
Параметр Endianness формата : Big
Идентификатор кодека : A_AC3
Продолжительность : 1 ч. 52 м.
Вид битрейта : Постоянный
Битрейт : 448 Кбит/сек
Каналы : 6 каналов
Расположение каналов : Front: L C R, Side: L R, LFE
Частота : 48,0 КГц
Частота кадров : 31,250 кадров/сек (1536 SPF)
Битовая глубина : 16 бит
Метод сжатия : С потерями
Размер потока : 362 Мбайт (7%)
Заголовок : Original
Язык : English
Default : Нет
Forced : Нет

Текст #1
Идентификатор : 5
Формат : UTF-8
Идентификатор кодека : S_TEXT/UTF8
Идентификатор кодека/Информация : UTF-8 Plain Text
Заголовок : На надписи
Язык : Russian
Default : Да
Forced : Нет

Текст #2
Идентификатор : 6
Формат : UTF-8
Идентификатор кодека : S_TEXT/UTF8
Идентификатор кодека/Информация : UTF-8 Plain Text
Язык : English
Default : Нет
Forced : Нет

Текст #3
Идентификатор : 7
Формат : UTF-8
Идентификатор кодека : S_TEXT/UTF8
Идентификатор кодека/Информация : UTF-8 Plain Text
Заголовок : SDH
Язык : English
Default : Нет
Forced : Нет

Текст #4
Идентификатор : 8
Формат : UTF-8
Идентификатор кодека : S_TEXT/UTF8
Идентификатор кодека/Информация : UTF-8 Plain Text
Язык : Finnish
Default : Нет
Forced : Нет

Текст #5
Идентификатор : 9
Формат : UTF-8
Идентификатор кодека : S_TEXT/UTF8
Идентификатор кодека/Информация : UTF-8 Plain Text
Язык : Spanish
Default : Нет
Forced : Нет

Меню
00:00:00.000 : en:The Cayhall Case (Main Titles)
00:08:34.359 : en:Hitler's Daughter
00:13:24.359 : en:The New Lawyer
00:26:45.359 : en:The Governor's Options
00:28:48.359 : en:Welcome to Dixie
00:33:38.359 : en:Land of The Secrets
00:37:58.359 : en:I'll Tell You About The Past . . .
00:50:39.359 : en:A New Motion
00:58:31.359 : en:The Sovereignty Commission's Report
01:03:50.359 : en:A Family Picture
01:13:42.359 : en:The Path to "R.W."
01:19:49.359 : en:Forgiveness
01:22:56.359 : en:The Last Appeal
01:33:21.359 : en:The Final Judgment
01:41:36.359 : en:The Chamber
01:47:08.359 : en:Maybe The Ghosts Are Gone (End Titles)
  • x264 [info]: frame I:1094 Avg QP:17.45 size: 106464
  • x264 [info]: frame P:30028 Avg QP:18.90 size: 53717
  • x264 [info]: frame B:131266 Avg QP:21.21 size: 23647
  • piratbit.cc



    Скачать Камера через торрент http://i5.imageban.ru/out/2018/05/18/63b769caf039e1a05ddeea5f1d8f8993.png Скачать фильм Камера через торрент бесплантно в хорошем качестве Описание: Молодой адвокат Эдам Холл, ведёт дело о помиловании Сэма Кэйхола, бывшего когда-то его наставником в расистской организации, а ... 10 10 1
    Торрент: Зарегистрирован [2019-07-14 15:08] · скачан: 9 раз
    Статус: √ проверено
    Размер: 5.16 GB
    Как cкачать? Как скачать Камера через торрент | qTorrent


    >> Регистрируемся здесь <<






    Отзывы и комментарии о схеме читаем и пишем здесь: ---> Отзывы и комментарии о схеме

    Новые благодарочки в телеграм довольных пользователей:
    скриншот   скриншот   скриншот   скриншот   скриншот
      Дорогой пользователь! Огромная просьба, поблагодарите релизера, оцените раздачу и оставьте свои комментарий, если Вы скачали Камера через торрент бесплатно! Внесите свою лепту в развитие PiratBit!
      Комментировать посты могут только пользователи прошедшие не сложную регистрацию
      Показать сообщения:    

      Камера через торрент
      Скачать бесплатно Камера
      Камера скачать торрент
      Камера смотреть онлайн
      Cкачать фильм Камера бесплатно
      Камера скачать торрент в хорошем качестве
      Камера смотреть онлайн бесплатно в хорошем качестве


      Вы не можете начинать темы
      Вы не можете отвечать на сообщения
      Вы не можете редактировать свои сообщения
      Вы не можете удалять свои сообщения
      Вы не можете голосовать в опросах
      Вы не можете прикреплять файлы к сообщениям
      Вы можете скачивать файлы