iTunes

1+1

iTunes

мы

iTunes

1

1 сезон

Чернобыль

1 сезон

Ральф против интернета

Лицензия

ПШазам

8 сезон

Игра престолов

Лицензия

30
pack

ВАЖНО

!!Акция!!

Alien_RageХит недели

RePack

Resident Evil 21

ИГРА 18+

pack

RePack

Metro:Exodus

!!Акция!!

Alien_Rage

RePack

fifa19

RePack

Assassins Creed: Odyssey

RePack

NEED FOR SPEED™ PAYBACK

3 сезон

9 сезон

Бесстыжие 9 сезон

Все сериалы

все сериалы на PB.wtf

RePack

FAR CRY 5
Ребята, катастрофически не хватает 2730р. для оплаты серверов за ИЮНЬ (всвязи с блокировками трафик упал в 3 раза), 1-2р., выручайте.
  

Город порока / Broken City (Аллен Хьюз / Allen Hughes) [2013, триллер, драма, криминал, BDRip-AVC] [Dub] piratbit.cc

Город порока через торрент piratbit.cc

Раздают: 51 [ 611 KB/s ]
Размер: 2.12 GB | Добавлен: 4 д. назад | Торрент скачан:42 раза
Скачать  

14-07-2019 15:22 Город порока Скачать торрент  

Город порока
Broken City

«Proof Can Be a Powerful Weapon»

Страна: США
Жанр: триллер, драма, криминал
Год выпуска: 2013
Продолжительность: 01:48:41

Перевод: Профессиональный (полное дублирование) [Пифагор]
Субтитры: русские (полные), английские (полные, SDH)
Оригинальная аудиодорожка: английский

Режиссер: Аллен Хьюз / Allen Hughes

В ролях: Марк Уолберг, Рассел Кроу, Кэтрин Зета-Джонс, Барри Пеппер, Кайл Чандлер, Натали Мартинес, Джеффри Райт, Алона Тал, Майкл Бич, Джеймс Рэнсон

Описание: История бывшего полицейского Билли Таггерта. 7 лет назад он стрелял в 16-летнего подростка, за что был уволен из полиции. Теперь Таггерт работает частным детективом, которого нанимает мэр, чтобы тот разузнал, не изменяет ли ему жена. Однако расследование адюльтера супруги мэра выливается в настоящий скандал. Человек, с которым жена мэра изменяла мужу, убит, а на поверхность всплывает нехорошая история с недвижимостью.



Релиз:

Автор рипа: stalkerok

Сэмпл

Качество видео: BDRip-AVC | Исходник: Broken City 2013 1080p Blu-ray AVC DTS-HD MA 5.1
Формат видео: MKV
Видео кодек: AVC
Аудио кодек: AC3
Видео: AVC, 1962 Кбит/сек, 1150x478 (2.40:1), 23,976 кадр/сек
Аудио №1: AC3, 384 Кбит/сек, 48 КГц, 5.1 - русский
Аудио №2: AC3, 448 Кбит/сек, 48 КГц, 5.1 - английский
Навигация по главам: есть
---[Information] [07.07.2019 20:33:50] x264 [info]: frame I:1114 Avg QP:14.60 size: 59104
---[Information] [07.07.2019 20:33:50] x264 [info]: frame P:32336 Avg QP:16.68 size: 21712
---[Information] [07.07.2019 20:33:50] x264 [info]: frame B:122910 Avg QP:19.19 size: 6772

General
Unique ID : 168586478336851375388447498624607948571 (0x7ED4931E8A9273732DE2D769D02B8F1B)
Complete name : C:\temp\Broken City\Broken.City.2013.BDRip.x264.Rus.Eng.stalkerok.New-Team.mkv
Format : Matroska
Format version : Version 4
File size : 2.12 GiB
Duration : 1 h 48 min
Overall bit rate : 2 798 kb/s
Movie name : Broken City (2013) | Rip by stalkerok
Encoded date : UTC 2019-07-14 14:15:41
Writing application : mkvmerge v33.1.0 ('Primrose') 64-bit
Writing library : libebml v1.3.7 + libmatroska v1.5.0
Attachments : poster.jpg

Video
ID : 1
Format : AVC
Format/Info : Advanced Video Codec
Format profile : High@L4.1
Format settings : CABAC / 12 Ref Frames
Format settings, CABAC : Yes
Format settings, RefFrames : 12 frames
Codec ID : V_MPEG4/ISO/AVC
Duration : 1 h 48 min
Bit rate : 1 963 kb/s
Width : 1 150 pixels
Height : 478 pixels
Display aspect ratio : 2.40:1
Frame rate mode : Constant
Frame rate : 23.976 FPS
Color space : YUV
Chroma subsampling : 4:2:0
Bit depth : 8 bits
Scan type : Progressive
Bits/(Pixel*Frame) : 0.149
Stream size : 1.49 GiB (70%)
Title : Broken City (2013) | Rip by stalkerok
Writing library : x264 core 157 r2945 72db437
Encoding settings : cabac=1 / ref=12 / deblock=1:-3:-2 / analyse=0x3:0x133 / me=umh / subme=10 / psy=1 / psy_rd=1.00:0.00 / mixed_ref=1 / me_range=32 / chroma_me=1 / trellis=2 / 8x8dct=1 / cqm=0 / deadzone=21,11 / fast_pskip=0 / chroma_qp_offset=-2 / threads=12 / lookahead_threads=3 / sliced_threads=0 / nr=0 / decimate=1 / interlaced=0 / bluray_compat=0 / constrained_intra=0 / bframes=14 / b_pyramid=2 / b_adapt=2 / b_bias=0 / direct=3 / weightb=1 / open_gop=0 / weightp=2 / keyint=240 / keyint_min=23 / scenecut=40 / intra_refresh=0 / rc_lookahead=60 / rc=crf / mbtree=0 / crf=17.8 / qcomp=0.65 / qpmin=0 / qpmax=69 / qpstep=4 / vbv_maxrate=50000 / vbv_bufsize=62500 / crf_max=0.0 / nal_hrd=none / filler=0 / ip_ratio=1.40 / pb_ratio=1.30 / aq=3:0.80 / zones=147607,156359,q=32
Default : Yes
Forced : No

Audio #1
ID : 2
Format : AC-3
Format/Info : Audio Coding 3
Commercial name : Dolby Digital
Codec ID : A_AC3
Duration : 1 h 48 min
Bit rate mode : Constant
Bit rate : 384 kb/s
Channel(s) : 6 channels
Channel layout : L R C LFE Ls Rs
Sampling rate : 48.0 kHz
Frame rate : 31.250 FPS (1536 SPF)
Bit depth : 16 bits
Compression mode : Lossy
Stream size : 299 MiB (14%)
Title : Dub
Language : Russian
Service kind : Complete Main
Default : Yes
Forced : No

Audio #2
ID : 3
Format : AC-3
Format/Info : Audio Coding 3
Commercial name : Dolby Digital
Codec ID : A_AC3
Duration : 1 h 48 min
Bit rate mode : Constant
Bit rate : 448 kb/s
Channel(s) : 6 channels
Channel layout : L R C LFE Ls Rs
Sampling rate : 48.0 kHz
Frame rate : 31.250 FPS (1536 SPF)
Bit depth : 16 bits
Compression mode : Lossy
Stream size : 348 MiB (16%)
Language : English
Service kind : Complete Main
Default : No
Forced : No

Text #1
ID : 4
Format : UTF-8
Codec ID : S_TEXT/UTF8
Codec ID/Info : UTF-8 Plain Text
Duration : 1 h 40 min
Bit rate : 120 b/s
Count of elements : 1637
Stream size : 88.6 KiB (0%)
Title : Full
Language : Russian
Default : No
Forced : No

Text #2
ID : 5
Format : UTF-8
Codec ID : S_TEXT/UTF8
Codec ID/Info : UTF-8 Plain Text
Duration : 1 h 39 min
Bit rate : 76 b/s
Count of elements : 1400
Stream size : 55.5 KiB (0%)
Title : Full
Language : English
Default : No
Forced : No

Text #3
ID : 6
Format : UTF-8
Codec ID : S_TEXT/UTF8
Codec ID/Info : UTF-8 Plain Text
Duration : 1 h 41 min
Bit rate : 79 b/s
Count of elements : 1517
Stream size : 59.0 KiB (0%)
Title : SDH
Language : English
Default : No
Forced : No

Menu
00:00:00.000 : :00:00:00.000
00:02:23.852 : :00:02:23.852
00:07:27.656 : :00:07:27.656
00:10:58.116 : :00:10:58.116
00:14:28.159 : :00:14:28.159
00:20:49.039 : :00:20:49.039
00:24:21.835 : :00:24:21.835
00:25:50.591 : :00:25:50.591
00:29:54.209 : :00:29:54.209
00:31:55.122 : :00:31:55.122
00:35:32.839 : :00:35:32.839
00:37:39.048 : :00:37:39.048
00:40:37.435 : :00:40:37.435
00:46:11.602 : :00:46:11.602
00:50:47.836 : :00:50:47.836
00:55:03.634 : :00:55:03.634
01:00:58.488 : :01:00:58.488
01:04:27.822 : :01:04:27.822
01:08:01.536 : :01:08:01.536
01:10:17.130 : :01:10:17.130
01:15:12.258 : :01:15:12.258
01:18:01.135 : :01:18:01.135
01:23:21.079 : :01:23:21.079
01:27:34.416 : :01:27:34.416
01:35:52.121 : :01:35:52.121
01:38:00.666 : :01:38:00.666
01:40:29.023 : :01:40:29.023
01:42:36.442 : :01:42:36.442
piratbit.cc



Скачать Город порока через торрент http://i6.imageban.ru/out/2017/09/18/2ff75c0c358795c5946784cc1680714d.png Скачать фильм Город порока через торрент бесплантно в хорошем качестве Описание: История бывшего полицейского Билли Таггерта. 7 лет назад он стрелял в 16-летнего подростка, за что был уволен из полиции. Теперь ... 5 10 1
Info! Золотая раздача, скачанное не засчитывается.
Торрент: Зарегистрирован [2019-07-14 15:22] · скачан: 42 раз
Статус: √ проверено
Размер: 2.12 GB
Как cкачать? Как скачать Город порока через торрент | qTorrent

% Раздел Тема Автор DL S | L
Фильмы 2013 [DVDrip, WEB-DLRip, HDrip] [ 746 MB ] Город порока / Broken City [2013 BDRip-AVC] sokol_ok Скачать
33 | 2
Фильмы 2013 [DVDrip, WEB-DLRip, HDrip] [ 1.5 GB ] Город порока / Broken City [2013 BDRip-AVC] sokol_ok Скачать
56 | 9
Фильмы 2013 [DVDrip, WEB-DLRip, HDrip] [ 2.18 GB ] Город порока / Broken City [2013 BDRip] 2x[Dub] killermax2013 Скачать
6 | 0
Фильмы [HD 720p, 1080p] (Хороший звук DUB, MVO) [ 5.05 GB ] Город порока / Broken City [2013 BDRip 720p от _denis_100 / NNNB] MVO + 2xAVO + Original + Sub _denis_100 Скачать
3 | 0
Фильмы с авторской озвучкой [ 2.18 GB ] Город порока / Broken City [2013 BDRip]AVO Ворон Скачать
1 | 0
Фильмы (Blu-ray, BD-Remux, HDDVD) [ 29.22 GB ] Город порока / Broken City [2013 BDRemux 1080p] [US Transfer] VO + Original + Subs Ворон Скачать
1 | 0
T Фильмы 2013 [DVDrip, WEB-DLRip, HDrip] [ 2.38 GB ] Город порока / Broken City [2013 BDRip-AVC ] МАКС1 Скачать
1 | 0


>> Регистрируемся здесь <<






Отзывы и комментарии о схеме читаем и пишем здесь: ---> Отзывы и комментарии о схеме

Новые благодарочки в телеграм довольных пользователей:
скриншот   скриншот   скриншот   скриншот   скриншот
    Дорогой пользователь! Огромная просьба, поблагодарите релизера, оцените раздачу и оставьте свои комментарий, если Вы скачали Город порока через торрент бесплатно! Внесите свою лепту в развитие PiratBit!
    Комментировать посты могут только пользователи прошедшие не сложную регистрацию
    Показать сообщения:    

    Город порока через торрент
    Скачать бесплатно Город порока
    Город порока скачать торрент
    Город порока смотреть онлайн
    Cкачать фильм Город порока бесплатно
    Город порока скачать торрент в хорошем качестве
    Город порока смотреть онлайн бесплатно в хорошем качестве


    Вы не можете начинать темы
    Вы не можете отвечать на сообщения
    Вы не можете редактировать свои сообщения
    Вы не можете удалять свои сообщения
    Вы не можете голосовать в опросах
    Вы не можете прикреплять файлы к сообщениям
    Вы можете скачивать файлы