iTunes

1+1

iTunes

мы

iTunes

1

1 сезон

Чернобыль

1 сезон

Ральф против интернета

Лицензия

ПШазам

8 сезон

Игра престолов

Лицензия

30
pack

ВАЖНО

!!Акция!!

Alien_RageХит недели

RePack

Resident Evil 21

ИГРА 18+

pack

RePack

Metro:Exodus

!!Акция!!

Alien_Rage

RePack

fifa19

RePack

Assassins Creed: Odyssey

RePack

NEED FOR SPEED™ PAYBACK

3 сезон

9 сезон

Бесстыжие 9 сезон

Все сериалы

все сериалы на PB.wtf

RePack

FAR CRY 5
Ребята, катастрофически не хватает 2730р. для оплаты серверов за ИЮНЬ (всвязи с блокировками трафик упал в 3 раза), 1-2р., выручайте.
  

Прорыв / Breakthrough (Роксанн Доусон) [2019, драма, биография, UHD BDRip 2160p] MVO [iTunes] piratbit.cc

Прорыв через торрент piratbit.cc

Раздают: 1 [ 0 KB/s ]
Размер: 13.64 GB | Добавлен: 4 д. назад | Торрент скачан:4 раза
Скачать  

14-07-2019 16:08 Прорыв Скачать торрент  

Прорыв / Breakthrough
Год выпуска: 2019
Страна: США
Жанр: драма, биография
Продолжительность: 01:56:15
Перевод: Профессиональный многоголосый | [iTunes]
Субтитры: Русские, английские, испанские, французские, немецкие
Режиссер: Роксанн Доусон
В ролях:

Тофер Грейс (Pastor Jason Noble), Джош Лукас (Brian Smith), Майк Колтер (Tommy Shine), Крисси Мец (Joyce Smith), Деннис Хейсбёрт (Doctor Garrett), Ребекка Стааб (Cindy Reiger), Сэм Трэммелл (Dr. Kent Sutterer), Марсель Руис (John Smith), Алиса Сковбай (Emma), Виктор Зинк (Joe Morrow), Чак Шамата (Fire Chief), Стефани Чайковский (Melissa)
Описание:
История чудесного спасения 14-летнего Джона, который провалился под лёд озера в Миссури. Когда мальчика доставили в больницу, он более часа не подавал признаков жизни. Его мать Джойс, не смирившись с потерей сына, призвала на помощь всю свою любовь и веру.
Рейтинг:

MPAA: PG - Рекомендуется присутствие родителей
Качество: UHD BDRip 2160p
Формат: MKV
Видео: HEVC HDR, 11.3 Mбит/с, 3840x1608, 23,976 кадра/сек, 10 бит
Аудио №1: русский / AC3, 6 ch, 384 Кбит/с
Аудио №2: английский / DTS XLL, 8 ch, 4633 Кбит/с
Аудио №3: английский / AC3, 2 ch, 224 Кбит/с
Навигация по главам: есть

Общее
Уникальный идентификатор : 315913470946075088580981905187747552029 (0xEDAAB8AA97AF80C9147136B79F5E5B1D)
Полное имя : 2019.breakthrough.2160p.uhd.bluray.x265.mkv
Формат : Matroska
Версия формата : Version 4
Размер файла : 13,6 Гбайт
Продолжительность : 1 ч. 56 м.
Режим общего битрейта : Переменный
Общий поток : 16,8 Мбит/сек
Название фильма : Breakthrough.2019
Дата кодирования : UTC 2019-07-14 13:30:35
Программа кодирования : mkvmerge v34.0.0 ('Sight and Seen') 64-bit
Библиотека кодирования : libebml v1.3.7 + libmatroska v1.5.0

Видео
Идентификатор : 1
Формат : HEVC
Формат/Информация : High Efficiency Video Coding
Коммерческое название : HDR10
Профиль формата : Main 10@L5.1@High
Идентификатор кодека : V_MPEGH/ISO/HEVC
Продолжительность : 1 ч. 56 м.
Битрейт : 11,3 Мбит/сек
Ширина : 3840 пикселей
Высота : 1608 пикселей
Соотношение сторон : 2,40:1
Режим частоты кадров : Постоянный
Частота кадров : 23,976 (24000/1001) кадра/сек
Цветовое пространство : YUV
Субдискретизация насыщенности : 4:2:0 (Type 2)
Битовая глубина : 10 бит
Бит/(Пиксели*Кадры) : 0.077
Размер потока : 9,20 Гбайт (67%)
Библиотека кодирования : x265 3.0_RC+44-a46ded2c1411:[Windows][GCC 6.3.0][64 bit] 10bit
Настройки программы : cpuid=1111039 / frame-threads=4 / numa-pools=20 / wpp / no-pmode / no-pme / no-psnr / no-ssim / log-level=2 / input-csp=1 / input-res=3840x1608 / interlace=0 / total-frames=167214 / level-idc=51 / high-tier=1 / uhd-bd=0 / ref=4 / no-allow-non-conformance / repeat-headers / annexb / aud / hrd / info / hash=0 / no-temporal-layers / no-open-gop / min-keyint=1 / keyint=24 / gop-lookahead=0 / bframes=4 / b-adapt=2 / b-pyramid / bframe-bias=0 / rc-lookahead=25 / lookahead-slices=4 / scenecut=40 / radl=0 / no-splice / no-intra-refresh / ctu=64 / min-cu-size=8 / rect / no-amp / max-tu-size=32 / tu-inter-depth=1 / tu-intra-depth=1 / limit-tu=0 / rdoq-level=2 / dynamic-rd=0.00 / no-ssim-rd / signhide / no-tskip / nr-intra=0 / nr-inter=0 / no-constrained-intra / no-strong-intra-smoothing / max-merge=3 / limit-refs=1 / limit-modes / me=3 / subme=3 / merange=57 / temporal-mvp / weightp / no-weightb / no-analyze-src-pics / deblock=-3:-3 / no-sao / no-sao-non-deblock / rd=4 / early-skip / rskip / no-fast-intra / no-tskip-fast / no-cu-lossless / b-intra / no-splitrd-skip / rdpenalty=0 / psy-rd=2.00 / psy-rdoq=1.00 / no-rd-refine / no-lossless / cbqpoffs=0 / crqpoffs=0 / rc=crf / crf=17.0 / qcomp=0.60 / qpstep=4 / stats-write=0 / stats-read=0 / vbv-maxrate=160000 / vbv-bufsize=160000 / vbv-init=0.9 / crf-max=0.0 / crf-min=0.0 / ipratio=1.40 / pbratio=1.30 / aq-mode=2 / aq-strength=1.00 / cutree / zone-count=0 / no-strict-cbr / qg-size=32 / no-rc-grain / qpmax=69 / qpmin=0 / no-const-vbv / sar=1 / overscan=0 / videoformat=5 / range=0 / colorprim=9 / transfer=16 / colormatrix=9 / chromaloc=1 / chromaloc-top=2 / chromaloc-bottom=2 / display-window=0 / master-display=G(13250,34500)B(7500,3000)R(34000,16000)WP(15635,16450)L(10000000,50)cll=0,0 / min-luma=0 / max-luma=1023 / log2-max-poc-lsb=8 / vui-timing-info / vui-hrd-info / slices=1 / no-opt-qp-pps / no-opt-ref-list-length-pps / no-multi-pass-opt-rps / scenecut-bias=0.05 / no-opt-cu-delta-qp / no-aq-motion / hdr / hdr-opt / no-dhdr10-opt / no-idr-recovery-sei / analysis-reuse-level=5 / scale-factor=0 / refine-intra=0 / refine-inter=0 / refine-mv=0 / refine-ctu-distortion=0 / no-limit-sao / ctu-info=0 / no-lowpass-dct / refine-analysis-type=0 / copy-pic=1 / max-ausize-factor=1.0 / no-dynamic-refine / no-single-sei / no-hevc-aq / no-svt / no-field / qp-adaptation-range=1.00
Default : Да
Forced : Нет
Цветовой диапазон : Limited
Основные цвета : BT.2020
Характеристики трансфера : PQ
Коэффициенты матрицы : BT.2020 non-constant
MasteringDisplay_ColorPrimaries : Display P3
MasteringDisplay_Luminance : min: 0.0050 cd/m2, max: 1000 cd/m2

Аудио #1
Идентификатор : 2
Формат : AC-3
Формат/Информация : Audio Coding 3
Коммерческое название : Dolby Digital
Идентификатор кодека : A_AC3
Продолжительность : 1 ч. 56 м.
Вид битрейта : Постоянный
Битрейт : 384 Кбит/сек
Каналы : 6 каналов
Channel layout : L R C LFE Ls Rs
Частота : 48,0 КГц
Частота кадров : 31,250 кадров/сек (1536 SPF)
Битовая глубина : 16 бит
Метод сжатия : С потерями
Размер потока : 319 Мбайт (2%)
Заголовок : MVO [iTunes]
Язык : Russian
ServiceKind/String : Complete Main
Default : Нет
Forced : Нет

Аудио #2
Идентификатор : 3
Формат : DTS XLL
Формат/Информация : Digital Theater Systems
Коммерческое название : DTS-HD Master Audio
Идентификатор кодека : A_DTS
Продолжительность : 1 ч. 56 м.
Вид битрейта : Переменный
Битрейт : 4633 Кбит/сек
Каналы : 8 каналов
Channel layout : C L R LFE Lb Rb Lss Rss
Частота : 48,0 КГц
Частота кадров : 93,750 кадра/сек (512 SPF)
Битовая глубина : 24 бит
Метод сжатия : Без потерь
Размер потока : 3,76 Гбайт (28%)
Язык : English
Default : Да
Forced : Нет

Аудио #3
Идентификатор : 4
Формат : AC-3
Формат/Информация : Audio Coding 3
Коммерческое название : Dolby Digital
Идентификатор кодека : A_AC3
Продолжительность : 1 ч. 56 м.
Вид битрейта : Постоянный
Битрейт : 224 Кбит/сек
Каналы : 2 канала
Channel layout : L R
Частота : 48,0 КГц
Частота кадров : 31,250 кадров/сек (1536 SPF)
Битовая глубина : 16 бит
Метод сжатия : С потерями
Размер потока : 186 Мбайт (1%)
Заголовок : Commentary
Язык : English
ServiceKind/String : Complete Main
Default : Нет
Forced : Нет

Текст #1
Идентификатор : 5
Формат : UTF-8
Идентификатор кодека : S_TEXT/UTF8
Идентификатор кодека/Информация : UTF-8 Plain Text
Продолжительность : 1 ч. 17 м.
Битрейт : 0 бит/сек
ElementCount : 5
Размер потока : 185 байт (0%)
Заголовок : Forced
Язык : Russian
Default : Да
Forced : Нет

Текст #2
Идентификатор : 6
Формат : UTF-8
Идентификатор кодека : S_TEXT/UTF8
Идентификатор кодека/Информация : UTF-8 Plain Text
Продолжительность : 1 ч. 55 м.
Битрейт : 81 бит/сек
ElementCount : 1613
Размер потока : 68,8 Кбайт (0%)
Заголовок : Full
Язык : Russian
Default : Нет
Forced : Нет

Текст #3
Идентификатор : 7
Формат : PGS
Режим смешивания : zlib
Идентификатор кодека : S_HDMV/PGS
Идентификатор кодека/Информация : Picture based subtitle format used on BDs/HD-DVDs
Продолжительность : 1 ч. 54 м.
Битрейт : 74,4 Кбит/сек
ElementCount : 4138
Размер потока : 60,9 Мбайт (0%)
Заголовок : English SDH
Язык : English
Default : Нет
Forced : Нет

Текст #4
Идентификатор : 8
Формат : PGS
Режим смешивания : zlib
Идентификатор кодека : S_HDMV/PGS
Идентификатор кодека/Информация : Picture based subtitle format used on BDs/HD-DVDs
Продолжительность : 1 ч. 55 м.
Битрейт : 58,2 Кбит/сек
ElementCount : 3336
Размер потока : 48,0 Мбайт (0%)
Язык : Spanish
Default : Нет
Forced : Нет

Текст #5
Идентификатор : 9
Формат : PGS
Режим смешивания : zlib
Идентификатор кодека : S_HDMV/PGS
Идентификатор кодека/Информация : Picture based subtitle format used on BDs/HD-DVDs
Продолжительность : 1 ч. 55 м.
Битрейт : 53,9 Кбит/сек
ElementCount : 3222
Размер потока : 44,4 Мбайт (0%)
Язык : French
Default : Нет
Forced : Нет

Текст #6
Идентификатор : 10
Формат : PGS
Режим смешивания : zlib
Идентификатор кодека : S_HDMV/PGS
Идентификатор кодека/Информация : Picture based subtitle format used on BDs/HD-DVDs
Продолжительность : 1 ч. 56 м.
Битрейт : 133 Кбит/сек
ElementCount : 4630
Размер потока : 110 Мбайт (1%)
Заголовок : Commentary
Язык : English
Default : Нет
Forced : Нет

Текст #7
Идентификатор : 11
Формат : PGS
Режим смешивания : zlib
Идентификатор кодека : S_HDMV/PGS
Идентификатор кодека/Информация : Picture based subtitle format used on BDs/HD-DVDs
Продолжительность : 1 ч. 56 м.
Битрейт : 94,6 Кбит/сек
ElementCount : 4108
Размер потока : 78,6 Мбайт (1%)
Заголовок : Commentary
Язык : Spanish
Default : Нет
Forced : Нет

Текст #8
Идентификатор : 12
Формат : PGS
Режим смешивания : zlib
Идентификатор кодека : S_HDMV/PGS
Идентификатор кодека/Информация : Picture based subtitle format used on BDs/HD-DVDs
Продолжительность : 1 ч. 56 м.
Битрейт : 99,7 Кбит/сек
ElementCount : 4056
Размер потока : 82,8 Мбайт (1%)
Заголовок : Commentary
Язык : French
Default : Нет
Forced : Нет

Меню #1
00:00:00.000 : :Chapter 01
00:04:29.519 : :Chapter 02
00:08:12.534 : :Chapter 03
00:15:41.440 : :Chapter 04
00:22:07.368 : :Chapter 05
00:24:59.915 : :Chapter 06
00:30:03.635 : :Chapter 07
00:35:26.416 : :Chapter 08
00:40:45.401 : :Chapter 09
00:45:39.362 : :Chapter 10
00:49:40.978 : :Chapter 11
00:55:18.357 : :Chapter 12
00:59:48.627 : :Chapter 13
01:04:34.746 : :Chapter 14
01:08:44.287 : :Chapter 15
01:12:40.106 : :Chapter 16
01:18:37.046 : :Chapter 17
01:26:36.316 : :Chapter 18
01:31:12.926 : :Chapter 19
01:37:36.934 : :Chapter 20
01:41:48.644 : :Chapter 21
01:45:39.291 : :Chapter 22
01:48:00.849 : :Chapter 23
01:51:55.918 : :Chapter 24

Меню #2
00:00:00.000 : en:Chapter 01
00:04:29.519 : en:Chapter 02
00:08:12.534 : en:Chapter 03
00:15:41.440 : en:Chapter 04
00:22:07.368 : en:Chapter 05
00:24:59.915 : en:Chapter 06
00:30:03.635 : en:Chapter 07
00:35:26.416 : en:Chapter 08
00:40:45.401 : en:Chapter 09
00:45:39.362 : en:Chapter 10
00:49:40.978 : en:Chapter 11
00:55:18.357 : en:Chapter 12
00:59:48.627 : en:Chapter 13
01:04:34.746 : en:Chapter 14
01:08:44.287 : en:Chapter 15
01:12:40.106 : en:Chapter 16
01:18:37.046 : en:Chapter 17
01:26:36.316 : en:Chapter 18
01:31:12.926 : en:Chapter 19
01:37:36.934 : en:Chapter 20
01:41:48.644 : en:Chapter 21
01:45:39.291 : en:Chapter 22
01:48:00.849 : en:Chapter 23
01:51:55.918 : en:Chapter 24
piratbit.cc



Скачать Прорыв через торрент https://a.radikal.ru/a35/1907/5f/970e7016a970.jpg Скачать фильм Прорыв через торрент бесплантно в хорошем качестве Описание: История чудесного спасения 14-летнего Джона, который провалился под лёд озера в Миссури. Когда мальчика доставили в больницу, он ... 10 10 2
Торрент: Зарегистрирован [2019-07-14 16:08] · скачан: 4 раз
Статус: √ проверено
Размер: 13.64 GB
Как cкачать? Как скачать Прорыв через торрент | qTorrent

% Раздел Тема Автор DL S | L
Ultra HD (UHD: 2K, 4K, 8K) — видео сверхвысокой чёткости [ 49.69 GB ] Прорыв / Breakthrough [2019 биография UHD BDRemux 2160p] MVO sheker187 Скачать
1 | 0
Фильмы 2019 [DVDrip, WEB-DLRip, HDrip] (DUB, MVO) [ 2.13 GB ] Прорыв / Breakthrough [2019 биография BDRip-AVC] MVO bober100 Скачать
3 | 1
Фильмы [HD 720p, 1080p] (Хороший звук DUB, MVO) [ 9.2 GB ] Прорыв / Breakthrough [2019 биография BDRip 1080p] MVO bober100 Скачать
1 | 0
Фильмы [HD 720p, 1080p] (Хороший звук DUB, MVO) [ 4.17 GB ] Прорыв / Breakthrough [2019 биография BDRip 720p] MVO bober100 Скачать
1 | 0
Фильмы (WEB-DL 720p, 1080p) [ 4.41 GB ] Прорыв / Breakthrough [2019 биография WEB-DL 1080p] MVO bober100 Скачать
5 | 0
Фильмы 2019 [DVDrip, WEB-DLRip, HDrip] (DUB, MVO) [ 1.41 GB ] Прорыв / Breakthrough [2019 биография BDRip] MVO bober100 Скачать
4 | 1
Фильмы 2019 [DVDrip, WEB-DLRip, HDrip] (DUB, MVO) [ 710 MB ] Прорыв / Breakthrough [2019 биография WEB-DLRip многоголосый ""] coc900 Скачать
7 | 0


>> Регистрируемся здесь <<






Отзывы и комментарии о схеме читаем и пишем здесь: ---> Отзывы и комментарии о схеме

Новые благодарочки в телеграм довольных пользователей:
скриншот   скриншот   скриншот   скриншот   скриншот
    Дорогой пользователь! Огромная просьба, поблагодарите релизера, оцените раздачу и оставьте свои комментарий, если Вы скачали Прорыв через торрент бесплатно! Внесите свою лепту в развитие PiratBit!
    Комментировать посты могут только пользователи прошедшие не сложную регистрацию
    Показать сообщения:    

    Прорыв через торрент
    Скачать бесплатно Прорыв
    Прорыв скачать торрент
    Прорыв смотреть онлайн
    Cкачать фильм Прорыв бесплатно
    Прорыв скачать торрент в хорошем качестве
    Прорыв смотреть онлайн бесплатно в хорошем качестве


    Вы не можете начинать темы
    Вы не можете отвечать на сообщения
    Вы не можете редактировать свои сообщения
    Вы не можете удалять свои сообщения
    Вы не можете голосовать в опросах
    Вы не можете прикреплять файлы к сообщениям
    Вы можете скачивать файлы