iTunes

1+1

iTunes

мы

iTunes

1

1 сезон

Чернобыль

1 сезон

Ральф против интернета

Лицензия

ПШазам

8 сезон

Игра престолов

Лицензия

30
pack

ВАЖНО

!!Акция!!

Alien_RageХит недели

RePack

Resident Evil 21

ИГРА 18+

pack

RePack

Metro:Exodus

!!Акция!!

Alien_Rage

RePack

fifa19

RePack

Assassins Creed: Odyssey

RePack

NEED FOR SPEED™ PAYBACK

3 сезон

9 сезон

Бесстыжие 9 сезон

Все сериалы

все сериалы на PB.wtf

RePack

FAR CRY 5
Ребята, катастрофически не хватает 2730р. для оплаты серверов за ИЮНЬ (всвязи с блокировками трафик упал в 3 раза), 1-2р., выручайте.
  

Игрушки / Toys (Барри Левинсон / Barry Levinson) [1992, фэнтези, боевик, драма, комедия, WEB-DL 1080p] 2x[MVO] (ОРТ,НТВ+) + [DVO] (Премьер Видео Фильм) + [AVO] (Андрей Гаврилов) piratbit.cc

Игрушки через торрент piratbit.cc

Раздают: 3 [ 0 KB/s ]
Размер: 12.15 GB | Добавлен: 4 д. назад | Торрент скачан:6 раз
Скачать  

14-07-2019 16:28 Игрушки Скачать торрент  

Игрушки / Toys Страна: США
Жанр: фэнтези, боевик, драма, комедия
Год выпуска: 1992
Продолжительность: 02:01:52

Перевод 1: Профессиональный (многоголосый закадровый) R5 / ОРТ
Перевод 2: Профессиональный (многоголосый закадровый) НТВ+
Перевод 3: Профессиональный (двухголосый закадровый) Премьер Видео Фильм
Перевод 4: Авторский (одноголосый закадровый) Андрей Гаврилов
Субтитры: русские, украинские, английские

Режиссер: Барри Левинсон / Barry Levinson

В ролях: Робин Уильямс,Майкл Гэмбон,Джоан Кьюсак,Робин Райт,ЭлЭл Кул Джей,Дональд О’Коннор,Артур Мэлет,Джек Уорден,Деби Мейзар,Уэнди Мелвойн...

Описание: Никто не любит игрушки так, как Лесли Зиво. Он сам их придумывает и тестирует на фабрике своего отца. Внезапно отец Зиво умирает, и самая большая компания по производству игрушек в стране переходит по наследству к дяде Лесли — армейскому генералу. Как оказалось, у дяди свои планы в отношении семейного бизнеса. Злобный генерал собирается наладить производство миниатюрной военной техники. Теперь Лесли предстоит сделать все возможное, чтобы отстоять фабрику от посягательств своего злобного родственника-милитариста.

Сэмпл: http://sendfile.su/1503872

Тип релиза: WEB-DL 1080p Amazon STARZ
Контейнер: MKV

Видео: 1920x1080 (16:9), 23.976 fps, AVC, ~12.3 Mbps, 0.247 bits/pixel
Аудио 1: Russian, 48.0 KHz, AC3, 6 ch, 448 Kbps - R5
Аудио 2: Russian, 48.0 KHz, AC3, 2 ch, 224 Kbps - НТВ+
Аудио 3: Russian, 48.0 KHz, AC3, 2 ch, 224 Kbps - Премьер Видео Фильм
Аудио 4: Russian, 48.0 KHz, AC3, 2 ch, 192 Kbps - Андрей Гаврилов
Аудио 5: English, 48.0 KHz, AC3+, 6 ch, 640 Kbps

General
Unique ID : 127064077079143576459411718755138741659 (0x5F97A6ADDA031B6C1B478FC692B5259B)
Complete name : C:\Toys. WEB-DL 1080p Amazon.mkv
Format : Matroska
Format version : Version 4 / Version 2
File size : 12.1 GiB
Duration : 2 h 1 min
Overall bit rate mode : Variable
Overall bit rate : 14.3 Mb/s
Encoded date : UTC 2019-07-01 16:07:00
Writing application : mkvmerge v35.0.0 ('All The Love In The World') 64-bit
Writing library : libebml v1.3.9 + libmatroska v1.5.2

Video
ID : 1
Format : AVC
Format/Info : Advanced Video Codec
Format profile : High@L4
Format settings : CABAC / 4 Ref Frames
Format settings, CABAC : Yes
Format settings, ReFrames : 4 frames
Codec ID : V_MPEG4/ISO/AVC
Duration : 2 h 1 min
Bit rate mode : Variable
Bit rate : 12.5 Mb/s
Maximum bit rate : 15.0 Mb/s
Width : 1 920 pixels
Height : 1 080 pixels
Display aspect ratio : 16:9
Frame rate mode : Constant
Frame rate : 23.976 (24000/1001) FPS
Color space : YUV
Chroma subsampling : 4:2:0
Bit depth : 8 bits
Scan type : Progressive
Bits/(Pixel*Frame) : 0.252
Stream size : 10.7 GiB (88%)
Language : English
Default : Yes
Forced : No
Color range : Limited
Color primaries : BT.709
Transfer characteristics : BT.709
Matrix coefficients : BT.709

Audio #1
ID : 2
Format : AC-3
Format/Info : Audio Coding 3
Commercial name : Dolby Digital
Codec ID : A_AC3
Duration : 2 h 1 min
Bit rate mode : Constant
Bit rate : 448 kb/s
Channel(s) : 6 channels
Channel layout : L R C LFE Ls Rs
Sampling rate : 48.0 kHz
Frame rate : 31.250 FPS (1536 SPF)
Bit depth : 16 bits
Compression mode : Lossy
Stream size : 391 MiB (3%)
Title : R5
Language : Russian
Service kind : Complete Main
Default : Yes
Forced : No

Audio #2
ID : 3
Format : AC-3
Format/Info : Audio Coding 3
Commercial name : Dolby Digital
Codec ID : A_AC3
Duration : 2 h 1 min
Bit rate mode : Constant
Bit rate : 224 kb/s
Channel(s) : 2 channels
Channel layout : L R
Sampling rate : 48.0 kHz
Frame rate : 31.250 FPS (1536 SPF)
Bit depth : 16 bits
Compression mode : Lossy
Stream size : 195 MiB (2%)
Title : НТВ+
Language : Russian
Service kind : Complete Main
Default : No
Forced : No

Audio #3
ID : 4
Format : AC-3
Format/Info : Audio Coding 3
Commercial name : Dolby Digital
Codec ID : A_AC3
Duration : 2 h 1 min
Bit rate mode : Constant
Bit rate : 224 kb/s
Channel(s) : 2 channels
Channel layout : L R
Sampling rate : 48.0 kHz
Frame rate : 31.250 FPS (1536 SPF)
Bit depth : 16 bits
Compression mode : Lossy
Stream size : 195 MiB (2%)
Title : Премьер Видео Фильм
Language : Russian
Service kind : Complete Main
Default : No
Forced : No

Audio #4
ID : 5
Format : AC-3
Format/Info : Audio Coding 3
Commercial name : Dolby Digital
Codec ID : A_AC3
Duration : 2 h 1 min
Bit rate mode : Constant
Bit rate : 192 kb/s
Channel(s) : 2 channels
Channel layout : L R
Sampling rate : 48.0 kHz
Frame rate : 31.250 FPS (1536 SPF)
Bit depth : 16 bits
Compression mode : Lossy
Stream size : 167 MiB (1%)
Title : Андрей Гаврилов
Language : Russian
Service kind : Complete Main
Default : No
Forced : No

Audio #5
ID : 6
Format : E-AC-3
Format/Info : Enhanced AC-3
Commercial name : Dolby Digital Plus
Codec ID : A_EAC3
Duration : 2 h 1 min
Bit rate mode : Constant
Bit rate : 640 kb/s
Channel(s) : 6 channels
Channel layout : L R C LFE Ls Rs
Sampling rate : 48.0 kHz
Frame rate : 31.250 FPS (1536 SPF)
Compression mode : Lossy
Stream size : 558 MiB (4%)
Language : English
Service kind : Complete Main
Default : No
Forced : No

Text #1
ID : 7
Format : UTF-8
Codec ID : S_TEXT/UTF8
Codec ID/Info : UTF-8 Plain Text
Duration : 2 h 1 min
Bit rate : 92 b/s
Count of elements : 1253
Stream size : 82.0 KiB (0%)
Language : Russian
Default : No
Forced : No

Text #2
ID : 8
Format : UTF-8
Codec ID : S_TEXT/UTF8
Codec ID/Info : UTF-8 Plain Text
Duration : 2 h 1 min
Bit rate : 90 b/s
Count of elements : 1253
Stream size : 80.2 KiB (0%)
Language : Ukrainian
Default : No
Forced : No

Text #3
ID : 9
Format : UTF-8
Codec ID : S_TEXT/UTF8
Codec ID/Info : UTF-8 Plain Text
Duration : 1 h 50 min
Bit rate : 65 b/s
Count of elements : 1200
Stream size : 53.3 KiB (0%)
Language : English
Default : No
Forced : No
скриншот  скриншот  скриншот  
piratbit.cc



Скачать Игрушки через торрент http://i5.imageban.ru/out/2018/05/10/5343460f0f0a420ff6152562d196693d.png Скачать фильм Игрушки через торрент бесплантно в хорошем качестве Описание: Никто не любит игрушки так, как Лесли Зиво. Он сам их придумывает и тестирует на фабрике своего отца. Внезапно отец Зиво умирает, ... 10 10 2
Торрент: Зарегистрирован [2019-07-14 16:28] · скачан: 6 раз
Статус: √ проверено
Размер: 12.15 GB
Как cкачать? Как скачать Игрушки через торрент | qTorrent

% Раздел Тема Автор DL S | L
T Фильмы 2016 [DVDrip, WEB-DLRip, HDrip] (DUB, MVO) [ 1.37 GB ] Игрушки из будущего / Time Toys [2016 WEB-DLRip Любительский [Синема УС]] oleg8 Скачать
1 | 0
Порно фильмы HD [ 3.93 GB ] Девушки любят игрушки и мальчиков 2 / Girls Love Toys & Boys 2 [2012 Anal Teens Blowjob Facial Cumshot Masturbation Natural Tits Toys Russian WEB-DL 1080p Оригинальный] nn99nn Скачать
1 | 0
Порно фильмы без сюжета [ 1.54 GB ] Девушки любят игрушки и мальчиков 3 / Girls Love Toys and Boys 3 [2016 Anal Teens Blowjob Brunette Cream Pie Masturbation Natural Tits Small TitsWEBRip.Оригинальный] DJASFUL Скачать
1 | 0
Discovery [ 3.13 GB ] Техноигрушки / Tech Toys 360 [2011 документальный HDTVRip ] schultz Скачать
1 | 0
Гонзо [ 1.68 GB ] Я Люблю Большие Игрушки 41 / I Love Big Toys 41 [2015 Big Tits All Girl / Lesbian All Sex Masturbation Sex Toy Play DVDRip Оригинал] Pir@tya2010 Скачать
1 | 0
Лесбиянки [ 1.83 GB ] Игрушки для больших поп / Big Ass Toys [2015 Lesbian All Girl First Anal Strap-On Dildos Toys WEB-DLRip Оригинал] Pir@tya2010 Скачать
1 | 0
Порно фильмы с сюжетом [ 1.94 GB ] Секс-игрушки для тебя и твоего партнёра / Sex Toys For You And Your Lover [2015 Couples Instructional Sex Toy Play VOD. Оригинал] Pir@tya2010 Скачать
1 | 0


>> Регистрируемся здесь <<






Отзывы и комментарии о схеме читаем и пишем здесь: ---> Отзывы и комментарии о схеме

Новые благодарочки в телеграм довольных пользователей:
скриншот   скриншот   скриншот   скриншот   скриншот
    Дорогой пользователь! Огромная просьба, поблагодарите релизера, оцените раздачу и оставьте свои комментарий, если Вы скачали Игрушки через торрент бесплатно! Внесите свою лепту в развитие PiratBit!
    Комментировать посты могут только пользователи прошедшие не сложную регистрацию
    Показать сообщения:    

    Игрушки через торрент
    Скачать бесплатно Игрушки
    Игрушки скачать торрент
    Игрушки смотреть онлайн
    Cкачать фильм Игрушки бесплатно
    Игрушки скачать торрент в хорошем качестве
    Игрушки смотреть онлайн бесплатно в хорошем качестве


    Вы не можете начинать темы
    Вы не можете отвечать на сообщения
    Вы не можете редактировать свои сообщения
    Вы не можете удалять свои сообщения
    Вы не можете голосовать в опросах
    Вы не можете прикреплять файлы к сообщениям
    Вы можете скачивать файлы