iTunes

1+1

iTunes

мы

iTunes

1

1 сезон

Чернобыль

1 сезон

Ральф против интернета

Лицензия

ПШазам

8 сезон

Игра престолов

Лицензия

30
pack

ВАЖНО

!!Акция!!

Alien_RageХит недели

RePack

Resident Evil 21

ИГРА 18+

pack

RePack

Metro:Exodus

!!Акция!!

Alien_Rage

RePack

fifa19

RePack

Assassins Creed: Odyssey

RePack

NEED FOR SPEED™ PAYBACK

3 сезон

9 сезон

Бесстыжие 9 сезон

Все сериалы

все сериалы на PB.wtf

RePack

FAR CRY 5
Ребята, катастрофически не хватает 2730р. для оплаты серверов за ИЮНЬ (всвязи с блокировками трафик упал в 3 раза), 1-2р., выручайте.
  

Доктор Хэрроу / Harrow / Сезон: 2 / Серии: 1-10 из 10 (Тони Кравиц, Питер Сэлмон, Кейт Дэннис) [2019, драма, HDTVRip] DVO [Kerob] piratbit.cc

Доктор Хэрроу через торрент piratbit.cc

Раздают: 1 [ 3 KB/s ] Качают: 2 [ 0 KB/s ]
Размер: 5.69 GB | Добавлен: 4 д. назад | Торрент скачан:4 раза
Скачать  

14-07-2019 17:06 Доктор Хэрроу Скачать торрент  

Доктор Хэрроу / Harrow
Год выпуска: 2019
Страна: США
Жанр: драма
Продолжительность: ~ 00:52:00 серия
Перевод: Любительский (двухголосый) | Kerob
Субтитры: отсутствуют

Режиссер: Тони Кравиц, Питер Сэлмон, Кейт Дэннис

rating


В ролях: Йоан Гриффит, Мирра Фолкс, Реми Хий, Робин Малкольм, Элла Ньютон, Анна Лизе Филлипс, Патрис Кокс, Мартиния О`Салливан, Пари Парандуш, Джонатан Шарп, Патрик Атчисон, Даррен Гилшенан, Мелани Хэйвард, Джанелл Бэйли, Хантер Пейдж-Лошар, Майкл Бэлк, Мелисса Бонн, Ари Бойлэнд, Николас Браун, Аарон Дэвисон, Киара Фриман

Описание: Доктор Даниэль Харроу – один из лучших специалистов в своей области, он блестящий медицинский эксперт, раскрывший уже не одно сложнейшее дело. Его стремление к справедливости для жертв помогает ему даже в самых сложных делах. Но однажды он сам оказывается в сложной ситуации. Смотрите онлайн сериал «Харроу» о том, как разоблачение темной тайны из прошлого доктора грозит его будущему и карьере, угрожает его семье. Он должен приложить все силы, использовать все свои навыки, чтобы эту тайну оставить нераскрытой.

Качество: HDTVRip
Формат: AVI

Видео: 720x400, ~ 1247 Кбит/сек, 25,000 fps
Аудио: Русский / AC-3 / 2.0 / 192 kbs
скриншот  скриншот  скриншот  скриншот  

Общее
Полное имя : D:\Harrow.S02.400p.Kerob\Harrow.S02E01.400p.Kerob.avi
Формат : AVI
Формат/Информация : Audio Video Interleave
Размер файла : 540 Мбайт
Продолжительность : 52 м. 5 с.
Общий поток : 1449 Кбит/сек
Программа кодирования : VirtualDubMod 1.5.10.2 (build 2540/release)
Библиотека кодирования : VirtualDubMod build 2540/release

Видео
Идентификатор : 0
Формат : xvid
Идентификатор кодека : xvid
Продолжительность : 52 м. 5 с.
Битрейт : 1190 Кбит/сек
Ширина : 720 пикселей
Высота : 400 пикселей
Соотношение сторон : 16:9
Частота кадров : 25,000 кадров/сек
Бит/(Пиксели*Кадры) : 0.165
Размер потока : 443 Мбайт (82%)

Аудио
Идентификатор : 1
Формат : AC-3
Формат/Информация : Audio Coding 3
Расширение режима : CM (complete main)
Параметр Endianness формата : Big
Идентификатор кодека : 2000
Продолжительность : 52 м. 5 с.
Вид битрейта : Постоянный
Битрейт : 192 Кбит/сек
Каналы : 2 канала
Расположение каналов : Front: L R
Частота : 48,0 КГц
Частота кадров : 31,250 кадров/сек (1536 spf)
Метод сжатия : С потерями
Размер потока : 71,5 Мбайт (13%)
Выравнивание : Разделение по промежуткам

piratbit.cc



Скачать Доктор Хэрроу через торрент http://lostpix.com/img/2019-05/12/xofknsabm6byvzr3bpcf69xmh.jpg Скачать фильм Доктор Хэрроу через торрент бесплантно в хорошем качестве Описание: Доктор Даниэль Харроу – один из лучших специалистов в своей области, он блестящий медицинский эксперт, раскрывший уже не одно ... 10 10 2
Торрент: Зарегистрирован [2019-07-14 17:06] · скачан: 4 раз
Статус: √ проверено
Размер: 5.69 GB
Как cкачать? Как скачать Доктор Хэрроу через торрент | qTorrent

% Раздел Тема Автор DL S | L
Зарубежные сериалы [ 12.44 GB ] Доктор Хэрроу / Harrow / Сезон: 2 / Серии: 1-10 из 10 [2019 HDTVRip 720p] DVO [Kerob] bober100 Скачать
1 | 3
Зарубежные сериалы [ 13.43 GB ] Доктор Хэрроу / Харроу / Harrow / Сезон: 2 / Серии: 1-10 из 10 [2019 HDTVRip 1080p] [MVO] killermax2013 Скачать
3 | 1
Зарубежные сериалы [ 7.22 GB ] Доктор Хэрроу / Харроу / Harrow / Сезон: 2 / Серии: 1-10 из 10 [2019 HDTVRip] [MVO] killermax2013 Скачать
1 | 1


>> Регистрируемся здесь <<






Отзывы и комментарии о схеме читаем и пишем здесь: ---> Отзывы и комментарии о схеме

Новые благодарочки в телеграм довольных пользователей:
скриншот   скриншот   скриншот   скриншот   скриншот

17-07-2019 16:40 Доктор Хэрроу Скачать торрент  

Топик был перенесен из форума Зарубежные сериалы в форум Для поглощённых раздач

Причина переноса: Доктор Хэрроу / Харроу / Harrow / Сезон: 2 / Серии: 1-10 из 10
killermax2013piratbit.cc



    Дорогой пользователь! Огромная просьба, поблагодарите релизера, оцените раздачу и оставьте свои комментарий, если Вы скачали Доктор Хэрроу через торрент бесплатно! Внесите свою лепту в развитие PiratBit!
    Комментировать посты могут только пользователи прошедшие не сложную регистрацию
    Показать сообщения:    

    Доктор Хэрроу через торрент
    Скачать бесплатно Доктор Хэрроу
    Доктор Хэрроу скачать торрент
    Доктор Хэрроу смотреть онлайн
    Cкачать фильм Доктор Хэрроу бесплатно
    Доктор Хэрроу скачать торрент в хорошем качестве
    Доктор Хэрроу смотреть онлайн бесплатно в хорошем качестве


    Вы не можете начинать темы
    Вы не можете отвечать на сообщения
    Вы не можете редактировать свои сообщения
    Вы не можете удалять свои сообщения
    Вы не можете голосовать в опросах
    Вы не можете прикреплять файлы к сообщениям
    Вы можете скачивать файлы