iTunes

1+1

iTunes

мы

iTunes

1

1 сезон

Чернобыль

1 сезон

Ральф против интернета

Лицензия

ПШазам

8 сезон

Игра престолов

Лицензия

30
pack

ВАЖНО

!!Акция!!

Alien_RageХит недели

RePack

Resident Evil 21

ИГРА 18+

pack

RePack

Metro:Exodus

!!Акция!!

Alien_Rage

RePack

fifa19

RePack

Assassins Creed: Odyssey

RePack

NEED FOR SPEED™ PAYBACK

3 сезон

9 сезон

Бесстыжие 9 сезон

Все сериалы

все сериалы на PB.wtf

RePack

FAR CRY 5
Ребята, катастрофически не хватает 2730р. для оплаты серверов за ИЮНЬ (всвязи с блокировками трафик упал в 3 раза), 1-2р., выручайте.
  

Доктор Хэрроу / Harrow / Сезон: 2 / Серии: 1-10 из 10 (Тони Кравиц, Питер Сэлмон, Кейт Дэннис) [2019, драма, HDTVRip 720p] DVO [Kerob] piratbit.cc

Доктор Хэрроу через торрент piratbit.cc

Качают: 3 [ 0 KB/s ]
Размер: 12.44 GB | Добавлен: 4 д. назад | Торрент скачан:7 раз
Скачать  

14-07-2019 17:06 Доктор Хэрроу Скачать торрент  

Доктор Хэрроу / Harrow
Год выпуска: 2019
Страна: США
Жанр: драма
Продолжительность: ~ 00:52:00 серия
Перевод: Любительский (двухголосый) | Kerob
Субтитры: отсутствуют

Режиссер: Тони Кравиц, Питер Сэлмон, Кейт Дэннис

rating


В ролях: Йоан Гриффит, Мирра Фолкс, Реми Хий, Робин Малкольм, Элла Ньютон, Анна Лизе Филлипс, Патрис Кокс, Мартиния О`Салливан, Пари Парандуш, Джонатан Шарп, Патрик Атчисон, Даррен Гилшенан, Мелани Хэйвард, Джанелл Бэйли, Хантер Пейдж-Лошар, Майкл Бэлк, Мелисса Бонн, Ари Бойлэнд, Николас Браун, Аарон Дэвисон, Киара Фриман

Описание: Доктор Даниэль Харроу – один из лучших специалистов в своей области, он блестящий медицинский эксперт, раскрывший уже не одно сложнейшее дело. Его стремление к справедливости для жертв помогает ему даже в самых сложных делах. Но однажды он сам оказывается в сложной ситуации. Смотрите онлайн сериал «Харроу» о том, как разоблачение темной тайны из прошлого доктора грозит его будущему и карьере, угрожает его семье. Он должен приложить все силы, использовать все свои навыки, чтобы эту тайну оставить нераскрытой.

Качество: HDTVRip 720p
Формат: MKV

Видео: 1280x720, ~ 3000 Кбит/сек, 25,000 fps
Аудио: Русский / AC-3 / 2.0 / 192 kbs
скриншот  скриншот  скриншот  скриншот  

Общее
Уникальный идентификатор : 203196939453398176340275911641777997341 (0x98DE4E99868A614484495F981A62861D)
Полное имя : D:\Harrow.S02.720p.Kerob\Harrow.S02E01.720p.Kerob.mkv
Формат : Matroska
Версия формата : Version 2
Размер файла : 1,16 Гбайт
Продолжительность : 52 м. 5 с.
Общий поток : 3190 Кбит/сек
Дата кодирования : UTC 2019-05-12 17:47:18
Программа кодирования : mkvmerge v3.3.0 ('Language') built on Mar 24 2010 14:59:24
Библиотека кодирования : libebml v0.8.0 + libmatroska v0.9.0

Видео
Идентификатор : 1
Формат : AVC
Формат/Информация : Advanced Video Codec
Профиль формата : Main@L3.1
Параметр CABAC формата : Да
Параметр RefFrames формата : 1 кадр
Параметр GOP формата : N=1
Идентификатор кодека : V_MPEG4/ISO/AVC
Продолжительность : 52 м. 5 с.
Битрейт : 3000 Кбит/сек
Ширина : 1280 пикселей
Высота : 720 пикселей
Соотношение сторон : 16:9
Режим частоты кадров : Постоянный
Частота кадров : 25,000 кадров/сек
Цветовое пространство : YUV
Субдискретизация насыщенности : 4:2:0
Битовая глубина : 8 бит
Тип развёртки : Прогрессивная
Бит/(Пиксели*Кадры) : 0.130
Размер потока : 1,07 Гбайт (92%)
Библиотека кодирования : x264 core 129
Настройки программы : cabac=1 / ref=1 / deblock=1:0:0 / analyse=0x1:0x131 / me=dia / subme=2 / psy=1 / psy_rd=1.00:0.00 / mixed_ref=0 / me_range=16 / chroma_me=1 / trellis=0 / 8x8dct=0 / cqm=0 / deadzone=21,11 / fast_pskip=1 / chroma_qp_offset=0 / threads=4 / lookahead_threads=1 / sliced_threads=0 / nr=0 / decimate=1 / interlaced=0 / bluray_compat=0 / constrained_intra=0 / bframes=0 / weightp=2 / keyint=250 / keyint_min=25 / scenecut=40 / intra_refresh=0 / rc_lookahead=40 / rc=abr / mbtree=1 / bitrate=3000 / ratetol=1.0 / qcomp=0.60 / qpmin=10 / qpmax=51 / qpstep=4 / ip_ratio=1.41 / aq=1:1.00
Default : Нет
Forced : Нет

Аудио
Идентификатор : 2
Формат : AC-3
Формат/Информация : Audio Coding 3
Расширение режима : CM (complete main)
Параметр Endianness формата : Big
Идентификатор кодека : A_AC3
Продолжительность : 52 м. 5 с.
Вид битрейта : Постоянный
Битрейт : 192 Кбит/сек
Каналы : 2 канала
Расположение каналов : Front: L R
Частота : 48,0 КГц
Частота кадров : 31,250 кадров/сек (1536 spf)
Метод сжатия : С потерями
Размер потока : 71,5 Мбайт (6%)
Default : Да
Forced : Нет

piratbit.cc



Скачать Доктор Хэрроу через торрент http://lostpix.com/img/2019-05/12/xofknsabm6byvzr3bpcf69xmh.jpg Скачать фильм Доктор Хэрроу через торрент бесплантно в хорошем качестве Описание: Доктор Даниэль Харроу – один из лучших специалистов в своей области, он блестящий медицинский эксперт, раскрывший уже не одно ... 10 10 3
Торрент: Зарегистрирован [2019-07-14 17:06] · скачан: 7 раз
Статус: √ проверено
Размер: 12.44 GB
Как cкачать? Как скачать Доктор Хэрроу через торрент | qTorrent

% Раздел Тема Автор DL S | L
Зарубежные сериалы [ 13.43 GB ] Доктор Хэрроу / Харроу / Harrow / Сезон: 2 / Серии: 1-10 из 10 [2019 HDTVRip 1080p] [MVO] killermax2013 Скачать
3 | 1
Зарубежные сериалы [ 7.22 GB ] Доктор Хэрроу / Харроу / Harrow / Сезон: 2 / Серии: 1-10 из 10 [2019 HDTVRip] [MVO] killermax2013 Скачать
1 | 1


>> Регистрируемся здесь <<






Отзывы и комментарии о схеме читаем и пишем здесь: ---> Отзывы и комментарии о схеме

Новые благодарочки в телеграм довольных пользователей:
скриншот   скриншот   скриншот   скриншот   скриншот
    Дорогой пользователь! Огромная просьба, поблагодарите релизера, оцените раздачу и оставьте свои комментарий, если Вы скачали Доктор Хэрроу через торрент бесплатно! Внесите свою лепту в развитие PiratBit!
    Комментировать посты могут только пользователи прошедшие не сложную регистрацию
    Показать сообщения:    

    Доктор Хэрроу через торрент
    Скачать бесплатно Доктор Хэрроу
    Доктор Хэрроу скачать торрент
    Доктор Хэрроу смотреть онлайн
    Cкачать фильм Доктор Хэрроу бесплатно
    Доктор Хэрроу скачать торрент в хорошем качестве
    Доктор Хэрроу смотреть онлайн бесплатно в хорошем качестве


    Вы не можете начинать темы
    Вы не можете отвечать на сообщения
    Вы не можете редактировать свои сообщения
    Вы не можете удалять свои сообщения
    Вы не можете голосовать в опросах
    Вы не можете прикреплять файлы к сообщениям
    Вы можете скачивать файлы