iTunes

1+1

iTunes

мы

iTunes

1

1 сезон

Чернобыль

1 сезон

Ральф против интернета

Лицензия

ПШазам

8 сезон

Игра престолов

Лицензия

30
pack

ВАЖНО

!!Акция!!

Alien_RageХит недели

RePack

Resident Evil 21

ИГРА 18+

pack

RePack

Metro:Exodus

!!Акция!!

Alien_Rage

RePack

fifa19

RePack

Assassins Creed: Odyssey

RePack

NEED FOR SPEED™ PAYBACK

3 сезон

9 сезон

Бесстыжие 9 сезон

Все сериалы

все сериалы на PB.wtf

RePack

FAR CRY 5
Ребята, катастрофически не хватает 2730р. для оплаты серверов за ИЮНЬ (всвязи с блокировками трафик упал в 3 раза), 1-2р., выручайте.
  

Неприличное везение / Удар судьбы / Бешеные деньги / Outrageous Fortune (Артур Хиллер / Arthur Hiller) [1987, комедия, детектив, приключения, WEB-DL 1080p от KORSAR] [DUB + 2xMVO + 2x AVO] piratbit.cc

Неприличное везение через торрент piratbit.cc

Раздают: 3 [ 0 KB/s ]
Размер: 9.84 GB | Добавлен: 4 д. назад | Торрент скачан:15 раз
Скачать  

14-07-2019 17:11 Неприличное везение Скачать торрент  

Неприличное везение / Удар судьбы / Бешеные деньги / Outrageous Fortune

Страна: США
Жанр: комедия, детектив, приключения
Год выпуска: 1987
Продолжительность: 01:34:59

Режиссер: Артур Хиллер / Arthur Hiller

В ролях: Шелли Лонг, Бетт Мидлер, Питер Койот, Роберт Проски, Джон Шак, Джордж Карлин, Энтони Хилд, Джи-Ту Кумбука, Флоренс Стэнли, Роджер Энгстром, Джерри Закс, Джеймс Эспиноза, Джон ДиСанти, Дайана Беллами, Гэри Морган, Кристофер Макдональд, Дж.В. Смит, Роберт Пасторелли, Тони Эппер, Билл Харт, Кэрол Энн Сьюзи, Дебра Делисо, Сандра Энг, Нил Хант, Том Лиллард, Джеймс МакИнтайр, Джоан МакМертри, Фил Мид, Лонна Монтроз, Боб О'Коннелл, Стивен Ротблатт, Эд Смолл, Джонни Санчес, Эбби Рои Смит, Банни Саммерс, Энн Мэри Ведер

Описание: Великолепная приключенческая комедия о двух девушках (Шелли Лонг и Бетт Мидлер), которые хотят стать актрисами. Они обнаруживают, что у них общий любовник (Питер Койот), к тому же еще и русский шпион, и гоняются за ним по всей стране, попадая в разные смешные ситуации, извергая на зрителя поток острот. Фильм изобилует смешными трюками, преследованиями на машинах, столкновениями с ЦРУ и КГБ... Название фильма - строка из монолога Гамлета, роль которого мечтала сыграть одна из героинь.

Релиз от:

Продолжительность: 01:39:03
Перевод: Дублированный, профессиональный многоголосый, авторский
Субтитры: Английские
Навигация по главам: Есть

Качество: WEB-DL 1080p
Формат: MKV

Видео: MPEG-4 AVC, 11,9 Мбит/сек, 1920x1040, 23,976 кадра/сек
Аудио #1: AC3, 6 ch, 384 Кбит/сек | Русский, профессиональный (многоголосый закадровый) DVD
Аудио #2: AC3, 2 ch, 192 Кбит/сек | Русский, профессиональный (полное дублирование) ВГТРК
Аудио #3: AC3, 2 ch, 192 Кбит/сек | Русский, профессиональный (многоголосый закадровый) ОРТ
Аудио #4: AC3, 2 ch, 224 Кбит/сек | Русский, авторский (одноголосый закадровый) Алексей Михалев, поздний
Аудио #5: AC3, 2 ch, 224 Кбит/сек | Русский, авторский (одноголосый закадровый) Алексей Михалев, ранний
Аудио #6: EAC3, 6 ch, 640 Кбит/сек | Английский, оригинал
Аудио #7: EAC3, 2 ch, 224 Кбит/сек | Английский, оригинал
Общее
Уникальный идентификатор : 172135435475413693118150700375107871466 (0x81801437322ADE888493B7141A0AA2EA)
Полное имя : Неприличное.везение.1987.WEB-DL.1080p.mkv
Формат : Matroska
Версия формата : Version 2
Размер файла : 9,84 Гбайт
Продолжительность : 1 ч. 39 м.
Режим общего битрейта : Переменный
Общий поток : 14,2 Мбит/сек
Дата кодирования : UTC 2018-04-20 18:25:00
Программа кодирования : mkvmerge v5.8.0 ('No Sleep / Pillow') built on Sep 2 2012 15:37:04
Библиотека кодирования : libebml v1.2.3 + libmatroska v1.3.0

Видео
Идентификатор : 1
Формат : AVC
Формат/Информация : Advanced Video Codec
Профиль формата : High@L4
Настройки формата : CABAC / 4 Ref Frames
Параметр CABAC формата : Да
Параметр RefFrames формата : 4 кадра
Идентификатор кодека : V_MPEG4/ISO/AVC
Продолжительность : 1 ч. 39 м.
Вид битрейта : Переменный
Битрейт : 11,9 Мбит/сек
Максимальный битрейт : 15,0 Мбит/сек
Ширина : 1920 пикселей
Высота : 1040 пикселей
Соотношение сторон : 1,85:1
Соотношение сторон в оригинале : 1,85:1
Режим частоты кадров : Постоянный
Частота кадров : 23,976 (24000/1001) кадра/сек
Цветовое пространство : YUV
Субдискретизация насыщенности : 4:2:0
Битовая глубина : 8 бит
Тип развёртки : Прогрессивная
Бит/(Пиксели*Кадры) : 0.248
Размер потока : 8,20 Гбайт (83%)
Библиотека кодирования : x264 core 148 r2623 d5b2374
Настройки программы : cabac=1 / ref=4 / deblock=1:-1:-1 / analyse=0x3:0x133 / me=umh / subme=9 / psy=1 / psy_rd=1.00:0.15 / mixed_ref=1 / me_range=24 / chroma_me=1 / trellis=2 / 8x8dct=1 / cqm=0 / deadzone=21,11 / fast_pskip=1 / chroma_qp_offset=-3 / threads=32 / lookahead_threads=5 / sliced_threads=0 / nr=150 / decimate=1 / interlaced=0 / bluray_compat=0 / constrained_intra=0 / bframes=8 / b_pyramid=2 / b_adapt=2 / b_bias=0 / direct=3 / weightb=1 / open_gop=0 / weightp=2 / keyint=120 / keyint_min=61 / scenecut=0 / intra_refresh=0 / rc_lookahead=120 / rc=crf / mbtree=1 / crf=18.0 / qcomp=0.60 / qpmin=0 / qpmax=69 / qpstep=4 / vbv_maxrate=15000 / vbv_bufsize=31250 / crf_max=0.0 / nal_hrd=vbr / filler=0 / ip_ratio=1.40 / aq=3:1.00
Язык : English
Default : Да
Forced : Нет
Цветовой диапазон : Limited
Основные цвета : BT.709
Характеристики трансфера : BT.709
Коэффициенты матрицы : BT.709

Аудио #1
Идентификатор : 2
Формат : AC-3
Формат/Информация : Audio Coding 3
Идентификатор кодека : A_AC3
Продолжительность : 1 ч. 39 м.
Вид битрейта : Постоянный
Битрейт : 384 Кбит/сек
Каналы : 6 каналов
Расположение каналов : Front: L C R, Side: L R, LFE
Частота : 48,0 КГц
Частота кадров : 31,250 кадров/сек (1536 SPF)
Битовая глубина : 16 бит
Метод сжатия : С потерями
Размер потока : 272 Мбайт (3%)
Заголовок : MVO | DVD
Язык : Russian
По умолчанию : Да
Принудительно : Нет

Аудио #2
Идентификатор : 3
Формат : AC-3
Формат/Информация : Audio Coding 3
Идентификатор кодека : A_AC3
Продолжительность : 1 ч. 39 м.
Вид битрейта : Постоянный
Битрейт : 192 Кбит/сек
Каналы : 2 канала
Расположение каналов : Front: L R
Частота : 48,0 КГц
Частота кадров : 31,250 кадров/сек (1536 SPF)
Битовая глубина : 16 бит
Метод сжатия : С потерями
Размер потока : 136 Мбайт (1%)
Заголовок : DUB | ВГТРК
Язык : Russian
По умолчанию : Нет
Принудительно : Нет

Аудио #3
Идентификатор : 4
Формат : AC-3
Формат/Информация : Audio Coding 3
Идентификатор кодека : A_AC3
Продолжительность : 1 ч. 39 м.
Вид битрейта : Постоянный
Битрейт : 192 Кбит/сек
Каналы : 2 канала
Расположение каналов : Front: L R
Частота : 48,0 КГц
Частота кадров : 31,250 кадров/сек (1536 SPF)
Битовая глубина : 16 бит
Метод сжатия : С потерями
Размер потока : 136 Мбайт (1%)
Заголовок : MVO | ОРТ
Язык : Russian
По умолчанию : Нет
Принудительно : Нет

Аудио #4
Идентификатор : 5
Формат : AC-3
Формат/Информация : Audio Coding 3
Идентификатор кодека : A_AC3
Продолжительность : 1 ч. 39 м.
Вид битрейта : Постоянный
Битрейт : 224 Кбит/сек
Каналы : 2 канала
Расположение каналов : Front: L R
Частота : 48,0 КГц
Частота кадров : 31,250 кадров/сек (1536 SPF)
Битовая глубина : 16 бит
Метод сжатия : С потерями
Размер потока : 159 Мбайт (2%)
Заголовок : AVO | А. Михалёв, поздний
Язык : Russian
По умолчанию : Нет
Принудительно : Нет

Аудио #5
Идентификатор : 6
Формат : AC-3
Формат/Информация : Audio Coding 3
Идентификатор кодека : A_AC3
Продолжительность : 1 ч. 39 м.
Вид битрейта : Постоянный
Битрейт : 224 Кбит/сек
Каналы : 2 канала
Расположение каналов : Front: L R
Частота : 48,0 КГц
Частота кадров : 31,250 кадров/сек (1536 SPF)
Битовая глубина : 16 бит
Метод сжатия : С потерями
Размер потока : 159 Мбайт (2%)
Заголовок : AVO | А. Михалёв, ранний
Язык : Russian
По умолчанию : Нет
Принудительно : Нет

Аудио #6
Идентификатор : 7
Формат : E-AC-3
Формат/Информация : Enhanced Audio Coding 3
Идентификатор кодека : A_EAC3
Продолжительность : 1 ч. 39 м.
Вид битрейта : Постоянный
Битрейт : 640 Кбит/сек
Каналы : 6 каналов
Расположение каналов : Front: L C R, Side: L R, LFE
Частота : 48,0 КГц
Частота кадров : 187,500 кадров/сек (256 SPF)
Метод сжатия : С потерями
Размер потока : 453 Мбайт (5%)
Заголовок : Original | 5.1
Язык : English
По умолчанию : Нет
Принудительно : Нет

Аудио #7
Идентификатор : 8
Формат : E-AC-3
Формат/Информация : Enhanced Audio Coding 3
Идентификатор кодека : A_EAC3
Продолжительность : 1 ч. 39 м.
Вид битрейта : Постоянный
Битрейт : 224 Кбит/сек
Каналы : 2 канала
Расположение каналов : Front: L R
Частота : 48,0 КГц
Частота кадров : 187,500 кадров/сек (256 SPF)
Метод сжатия : С потерями
Размер потока : 159 Мбайт (2%)
Заголовок : Original | 2.0
Язык : English
По умолчанию : Нет
Принудительно : Нет

Текст #1
Идентификатор : 9
Формат : UTF-8
Идентификатор кодека : S_TEXT/UTF8
Идентификатор кодека/Информация : UTF-8 Plain Text
Язык : English
По умолчанию : Нет
Принудительно : Нет

Текст #2
Идентификатор : 10
Формат : UTF-8
Идентификатор кодека : S_TEXT/UTF8
Идентификатор кодека/Информация : UTF-8 Plain Text
Заголовок : SDH
Язык : English
По умолчанию : Нет
Принудительно : Нет

Меню
00:00:00.000 : en:Opening Credits
00:02:07.000 : en:In Pursuit Of The "Acting Thing"
00:06:50.000 : en:Waiting To Audition
00:12:59.000 : en:Too Good To Be True?
00:22:40.000 : en:Three-Week Anniversary
00:24:03.000 : en:Meeting At The Morgue
00:28:31.000 : en:The Plot Thickens
00:35:13.000 : en:Where There's Smoke
00:38:25.000 : en:The Friendly Neighborhood Cab Company
00:43:27.000 : en:Playing Cops And Robbers
00:46:53.000 : en:A Deserving Performance
00:51:20.000 : en:Welcome To Albuquerque
00:56:42.000 : en:Dealing With Loose Ends
01:01:54.000 : en:CIA Debriefing
01:04:41.000 : en:Dangers In The Desert
01:11:59.000 : en:The Tracker Of Tres Crucas
01:15:59.000 : en:Looking For A Good Time
01:23:36.000 : en:Finding Big Trouble
01:27:01.000 : en:The Exchange At Four Fingers
01:36:23.000 : en:End Credits
• Исходник видео WEB-DL Amazon.
piratbit.cc



Скачать Неприличное везение через торрент http://i65.fastpic.ru/big/2014/1103/03/9af9ea51400a8c872c6278765db6c003.jpg Скачать фильм Неприличное везение через торрент бесплантно в хорошем качестве Описание: Великолепная приключенческая комедия о двух девушках (Шелли Лонг и Бетт Мидлер), которые хотят стать актрисами. Они обнаруживают, ... 10 10 1
Торрент: Зарегистрирован [2019-07-14 17:11] · скачан: 15 раз
Статус: √ проверено
Размер: 9.84 GB
Как cкачать? Как скачать Неприличное везение через торрент | qTorrent


>> Регистрируемся здесь <<






Отзывы и комментарии о схеме читаем и пишем здесь: ---> Отзывы и комментарии о схеме

Новые благодарочки в телеграм довольных пользователей:
скриншот   скриншот   скриншот   скриншот   скриншот
    Дорогой пользователь! Огромная просьба, поблагодарите релизера, оцените раздачу и оставьте свои комментарий, если Вы скачали Неприличное везение через торрент бесплатно! Внесите свою лепту в развитие PiratBit!
    Комментировать посты могут только пользователи прошедшие не сложную регистрацию
    Показать сообщения:    

    Неприличное везение через торрент
    Скачать бесплатно Неприличное везение
    Неприличное везение скачать торрент
    Неприличное везение смотреть онлайн
    Cкачать фильм Неприличное везение бесплатно
    Неприличное везение скачать торрент в хорошем качестве
    Неприличное везение смотреть онлайн бесплатно в хорошем качестве


    Вы не можете начинать темы
    Вы не можете отвечать на сообщения
    Вы не можете редактировать свои сообщения
    Вы не можете удалять свои сообщения
    Вы не можете голосовать в опросах
    Вы не можете прикреплять файлы к сообщениям
    Вы можете скачивать файлы