iTunes

1+1

iTunes

мы

iTunes

1

1 сезон

Чернобыль

1 сезон

Ральф против интернета

Лицензия

ПШазам

8 сезон

Игра престолов

Лицензия

30
pack

ВАЖНО

!!Акция!!

Alien_RageХит недели

RePack

Resident Evil 21

ИГРА 18+

pack

RePack

Metro:Exodus

!!Акция!!

Alien_Rage

RePack

fifa19

RePack

Assassins Creed: Odyssey

RePack

NEED FOR SPEED™ PAYBACK

3 сезон

9 сезон

Бесстыжие 9 сезон

Все сериалы

все сериалы на PB.wtf

RePack

FAR CRY 5
Ребята, катастрофически не хватает 2730р. для оплаты серверов за ИЮНЬ (всвязи с блокировками трафик упал в 3 раза), 1-2р., выручайте.
  

Высшее образование / Higher Learning (Джон Синглтон / John Singleton) [1995, драма, WEB-DL 1080p от KORSAR] [DVO (НТВ+) + AVO] piratbit.cc

Высшее образование через торрент piratbit.cc

Раздают: 1 [ 0 KB/s ]
Размер: 12.78 GB | Добавлен: 4 д. назад | Торрент скачан:8 раз
Скачать  

14-07-2019 17:24 Высшее образование Скачать торрент  

Высшее образование / Higher Learning

Страна: США
Студия: Columbia Pictures Corporation
Жанр: драма
Год выпуска: 1995

Режиссер: Джон Синглтон / John Singleton

В ролях: Омар Эппс, Кристи Суонсон, Майкл Рапапорт, Дженнифер Коннелли, Айс Кьюб, Джейсон Уайлз, Тайра Бэнкс, Коул Хаузер, Лоренс Фишбёрн, Бриджит Уилсон, Гвинет Пэлтроу

Описание: Молодёжь из разных стран и разных социальных групп вынуждена взаимодействовать на территории колумбийского университета. У всех есть свои собственные проблемы, которые они хотят решить. Это финансовая независимость, сексуальные домогательства, личная безопасность и различные сомнения. Расизм - главная проблема городка.

Релиз от:

Продолжительность: 02:08:38
Перевод: Профессиональный двухголосый, авторский
Субтитры: Английские, финские, немецкие
Навигация по главам: Есть

Качество: WEB-DL 1080p
Формат: MKV

Видео: MPEG-4 AVC, 12,9 Мбит/сек, 1920x1080, 23,976 кадра/сек
Аудио #1: AC3, 2 ch, 192 Кбит/сек | Русский, профессиональный (двухголосый закадровый) HTB+
Аудио #2: AC3, 2 ch, 192 Кбит/сек | Русский, авторский (одноголосый закадровый) Сергей Визгунов
Аудио #3: EAC3, 6 ch, 640 Кбит/сек | Английский, оригинал
Общее
Уникальный идентификатор : 223744008145216608047707939640663937006 (0xA853874CD9F5E326A51E7A97EB8D0FEE)
Полное имя : Высшее.образование.1995.WEB-DL.1080p.mkv
Формат : Matroska
Версия формата : Version 2
Размер файла : 12,8 Гбайт
Продолжительность : 2 ч. 8 м.
Режим общего битрейта : Переменный
Общий поток : 14,2 Мбит/сек
Дата кодирования : UTC 2018-04-16 15:47:08
Программа кодирования : mkvmerge v5.8.0 ('No Sleep / Pillow') built on Sep 2 2012 15:37:04
Библиотека кодирования : libebml v1.2.3 + libmatroska v1.3.0

Видео
Идентификатор : 1
Формат : AVC
Формат/Информация : Advanced Video Codec
Профиль формата : High@L4
Настройки формата : CABAC / 4 Ref Frames
Параметр CABAC формата : Да
Параметр RefFrames формата : 4 кадра
Идентификатор кодека : V_MPEG4/ISO/AVC
Продолжительность : 2 ч. 8 м.
Вид битрейта : Переменный
Битрейт : 12,9 Мбит/сек
Максимальный битрейт : 15,0 Мбит/сек
Ширина : 1920 пикселей
Высота : 1080 пикселей
Соотношение сторон : 16:9
Режим частоты кадров : Постоянный
Частота кадров : 23,976 (24000/1001) кадра/сек
Цветовое пространство : YUV
Субдискретизация насыщенности : 4:2:0
Битовая глубина : 8 бит
Тип развёртки : Прогрессивная
Бит/(Пиксели*Кадры) : 0.260
Размер потока : 11,6 Гбайт (91%)
Язык : English
Default : Да
Forced : Нет
Цветовой диапазон : Limited
Основные цвета : BT.709
Характеристики трансфера : BT.709
Коэффициенты матрицы : BT.709

Аудио #1
Идентификатор : 2
Формат : AC-3
Формат/Информация : Audio Coding 3
Идентификатор кодека : A_AC3
Продолжительность : 2 ч. 8 м.
Вид битрейта : Постоянный
Битрейт : 192 Кбит/сек
Каналы : 2 канала
Расположение каналов : Front: L R
Частота : 48,0 КГц
Частота кадров : 31,250 кадров/сек (1536 SPF)
Битовая глубина : 16 бит
Метод сжатия : С потерями
Размер потока : 177 Мбайт (1%)
Заголовок : DVO | HTB+
Язык : Russian
По умолчанию : Да
Принудительно : Нет

Аудио #2
Идентификатор : 3
Формат : AC-3
Формат/Информация : Audio Coding 3
Идентификатор кодека : A_AC3
Продолжительность : 2 ч. 8 м.
Вид битрейта : Постоянный
Битрейт : 192 Кбит/сек
Каналы : 2 канала
Расположение каналов : Front: L R
Частота : 48,0 КГц
Частота кадров : 31,250 кадров/сек (1536 SPF)
Битовая глубина : 16 бит
Метод сжатия : С потерями
Размер потока : 177 Мбайт (1%)
Заголовок : AVO | С. Визгунов
Язык : Russian
По умолчанию : Нет
Принудительно : Нет

Аудио #3
Идентификатор : 4
Формат : E-AC-3
Формат/Информация : Enhanced Audio Coding 3
Идентификатор кодека : A_EAC3
Продолжительность : 2 ч. 8 м.
Вид битрейта : Постоянный
Битрейт : 640 Кбит/сек
Каналы : 6 каналов
Расположение каналов : Front: L C R, Side: L R, LFE
Частота : 48,0 КГц
Частота кадров : 187,500 кадров/сек (256 SPF)
Метод сжатия : С потерями
Задержка видео : 25 мс.
Размер потока : 589 Мбайт (4%)
Заголовок : Original
Язык : English
По умолчанию : Нет
Принудительно : Нет

Текст #1
Идентификатор : 5
Формат : UTF-8
Идентификатор кодека : S_TEXT/UTF8
Идентификатор кодека/Информация : UTF-8 Plain Text
Заголовок : 1
Язык : English
По умолчанию : Нет
Принудительно : Нет

Текст #2
Идентификатор : 6
Формат : UTF-8
Идентификатор кодека : S_TEXT/UTF8
Идентификатор кодека/Информация : UTF-8 Plain Text
Заголовок : 2
Язык : English
По умолчанию : Нет
Принудительно : Нет

Текст #3
Идентификатор : 7
Формат : UTF-8
Идентификатор кодека : S_TEXT/UTF8
Идентификатор кодека/Информация : UTF-8 Plain Text
Заголовок : SDH
Язык : English
По умолчанию : Нет
Принудительно : Нет

Текст #4
Идентификатор : 8
Формат : UTF-8
Идентификатор кодека : S_TEXT/UTF8
Идентификатор кодека/Информация : UTF-8 Plain Text
Язык : Finnish
По умолчанию : Нет
Принудительно : Нет

Текст #5
Идентификатор : 9
Формат : UTF-8
Идентификатор кодека : S_TEXT/UTF8
Идентификатор кодека/Информация : UTF-8 Plain Text
Язык : German
По умолчанию : Нет
Принудительно : Нет

Меню
00:00:00.000 : en:Start
00:02:38.688 : en:Incoming Freshman class
00:07:34.688 : en:Roommates
00:13:49.688 : en:Taryn meets Kristen
00:17:46.688 : en:Political Science 101
00:24:09.688 : en:Moving out
00:27:46.688 : en:Fun & games
00:30:54.688 : en:Kristen & Billy
00:39:54.688 : en:Fudge's library
00:41:28.688 : en:Remy meets Scott
00:43:59.688 : en:Semester assignment
00:54:44.688 : en:Miss Deja
00:56:29.688 : en:Remy's new family
01:06:44.688 : en:"No means no."
01:07:36.688 : en:Skinhead attack
01:13:38.688 : en:Guns
01:14:54.688 : en:Two lovers
01:23:51.688 : en:Pulling a gun
01:30:38.688 : en:"Information is power."
01:35:54.688 : en:Fighting Supremacists
01:40:40.688 : en:Remy enters the race war
01:43:39.688 : en:The Peace Fest
01:47:29.688 : en:"Shoot Remy, Shoot!"
01:51:19.688 : en:On the stairwell
01:52:57.688 : en:Standoff
01:57:56.688 : en:Malik's future
02:00:19.688 : en:"This is all my fault."
02:03:41.688 : en:UNLEARN
• Исходник видео WEB-DL Amazon.
• В кадре, временами, присутствует логотип телеканала "STARZ".
piratbit.cc



Скачать Высшее образование через торрент http://i2.imageban.ru/out/2018/04/16/44f86b749417c36cc36fc46d17dac640.png Скачать фильм Высшее образование через торрент бесплантно в хорошем качестве Описание: Молодёжь из разных стран и разных социальных групп вынуждена взаимодействовать на территории колумбийского университета. У всех ... 9.5 10 2
Торрент: Зарегистрирован [2019-07-14 17:24] · скачан: 8 раз
Статус: √ проверено
Размер: 12.78 GB
Как cкачать? Как скачать Высшее образование через торрент | qTorrent


>> Регистрируемся здесь <<






Отзывы и комментарии о схеме читаем и пишем здесь: ---> Отзывы и комментарии о схеме

Новые благодарочки в телеграм довольных пользователей:
скриншот   скриншот   скриншот   скриншот   скриншот
    Дорогой пользователь! Огромная просьба, поблагодарите релизера, оцените раздачу и оставьте свои комментарий, если Вы скачали Высшее образование через торрент бесплатно! Внесите свою лепту в развитие PiratBit!
    Комментировать посты могут только пользователи прошедшие не сложную регистрацию
    Показать сообщения:    

    Высшее образование через торрент
    Скачать бесплатно Высшее образование
    Высшее образование скачать торрент
    Высшее образование смотреть онлайн
    Cкачать фильм Высшее образование бесплатно
    Высшее образование скачать торрент в хорошем качестве
    Высшее образование смотреть онлайн бесплатно в хорошем качестве


    Вы не можете начинать темы
    Вы не можете отвечать на сообщения
    Вы не можете редактировать свои сообщения
    Вы не можете удалять свои сообщения
    Вы не можете голосовать в опросах
    Вы не можете прикреплять файлы к сообщениям
    Вы можете скачивать файлы