iTunes

1+1

iTunes

мы

iTunes

1

1 сезон

Чернобыль

1 сезон

Ральф против интернета

Лицензия

ПШазам

8 сезон

Игра престолов

Лицензия

30
pack

ВАЖНО

!!Акция!!

Alien_RageХит недели

RePack

Resident Evil 21

ИГРА 18+

pack

RePack

Metro:Exodus

!!Акция!!

Alien_Rage

RePack

fifa19

RePack

Assassins Creed: Odyssey

RePack

NEED FOR SPEED™ PAYBACK

3 сезон

9 сезон

Бесстыжие 9 сезон

Все сериалы

все сериалы на PB.wtf

RePack

FAR CRY 5
Ребята, катастрофически не хватает 2730р. для оплаты серверов за ИЮНЬ (всвязи с блокировками трафик упал в 3 раза), 1-2р., выручайте.
  

Хладнокровный / Cold Blood Legacy (Фридерик Петижан) [2019, Боевик, триллер, WEB-DL 1080p] MVO [HDRezka Studio] piratbit.cc

Хладнокровный через торрент piratbit.cc

Раздают: 14 [ 351 KB/s ]
Размер: 5.87 GB | Добавлен: 4 д. назад | Торрент скачан:102 раза
Скачать  

14-07-2019 17:38 Хладнокровный Скачать торрент  

Холодная кровь: Наследие / Cold Blood Legacy«You can't outrun the past» Год выпуска: 2019
Страна: Франция, Украина
Жанр: Боевик, триллер
Продолжительность: 01:31:22
Перевод: Профессиональный (многоголосый) | HDRezka Studio
Субтитры: Английские (полные, SDH)

Режиссер: Фридерик Петижан

rating

В ролях: Жан Рено, Сара Линд, Джо Андерсон, Дэвид Гяси, Игорь Цишкевич, Франсуа Гетари, Саманта Бонд, Катерина Бурсикова, Анна Буткевич, Роберт Фельдман

Описание: Генри, один из наиболее разыскиваемых киллеров в отставке, живёт отшельником на берегу озера в труднодоступной лесной чаще. Однажды недалеко от его дома происходит несчастный случай: на мотосанях разбивается девушка. Перед Генри встаёт дилемма: спасти девушку, подвергнув себя риску быть обнаруженным или поступить так, как подсказывает здравый смысл и многолетний опыт.

Качество: WEB-DL 1080p
Формат: MKV

Видео: 1920x800 (2.40:1), 23,976 fps, x264 ~8 357 kbps avg, 0.227 bit/pixel
Аудио#1: 48 kHz, AC3 Dolby Digital, 2 (L,R) ch, ~192.00 kbps avg | RUS (HDRezka Studio)
Аудио#2: 48 kHz, E-AC3 Dolby Digital, 3/2 (L,C,R,l,r) + LFE ch, ~640.00 kbps avg | FRA
скриншот  скриншот  скриншот  скриншот  

Общее
Уникальный идентификатор : 234826055733883991082659949513449202833 (0xB0A9DA6E54D593945B451958C53CE491)
Полное имя : F:OlLanDGroupCold.Blood.Legacy.2019.AMZN.WEB-DL(1080p).OlLanDGroup.mkv
Формат : Matroska
Версия формата : Version 4 / Version 2
Размер файла : 5,87 Гбайт
Продолжительность : 1 ч. 31 м.
Общий поток : 9188 Кбит/сек
Название фильма : Cold.Blood.Legacy.2019 #TorpedoUK#
Дата кодирования : UTC 2019-07-14 17:14:32
Программа кодирования : mkvmerge v29.0.0 ('Like It Or Not') 64-bit
Библиотека кодирования : libebml v1.3.6 + libmatroska v1.4.9

Видео
Идентификатор : 1
Формат : AVC
Формат/Информация : Advanced Video Codec
Профиль формата : High@L4
Параметр CABAC формата : Да
Параметр ReFrames формата : 4 кадра
Идентификатор кодека : V_MPEG4/ISO/AVC
Продолжительность : 1 ч. 31 м.
Вид битрейта : Постоянный
Битрейт : 8357 Кбит/сек
Номинальный битрейт : 10000 Кбит/сек
Ширина : 1920 пикселей
Высота : 800 пикселей
Соотношение сторон : 2,40:1
Режим частоты кадров : Постоянный
Частота кадров : 23,976 (24000/1001) кадра/сек
Цветовое пространство : YUV
Субдискретизация насыщенности : 4:2:0
Битовая глубина : 8 бит
Тип развёртки : Прогрессивная
Бит/(Пиксели*Кадры) : 0.227
Размер потока : 5,33 Гбайт (91%)
Default : Да
Forced : Нет
Цветовой диапазон : Limited
Основные цвета : BT.709
Характеристики трансфера : BT.709
Коэффициенты матрицы : BT.709

Аудио #1
Идентификатор : 2
Формат : AC-3
Формат/Информация : Audio Coding 3
Расширение режима : CM (complete main)
Параметр Endianness формата : Big
Идентификатор кодека : A_AC3
Продолжительность : 1 ч. 31 м.
Вид битрейта : Постоянный
Битрейт : 192 Кбит/сек
Каналы : 2 канала
Расположение каналов : Front: L R
Частота : 48,0 КГц
Частота кадров : 31,250 кадров/сек (1536 spf)
Битовая глубина : 16 бит
Метод сжатия : С потерями
Размер потока : 126 Мбайт (2%)
Заголовок : MVO [HDRezka Studio]
Язык : Russian
Default : Да
Forced : Нет

Аудио #2
Идентификатор : 3
Формат : E-AC-3
Формат/Информация : Enhanced Audio Coding 3
Параметр Endianness формата : Big
Идентификатор кодека : A_EAC3
Продолжительность : 1 ч. 31 м.
Вид битрейта : Постоянный
Битрейт : 640 Кбит/сек
Каналы : 6 каналов
Расположение каналов : Front: L C R, Side: L R, LFE
Частота : 48,0 КГц
Частота кадров : 187,500 кадров/сек (256 spf)
Метод сжатия : С потерями
Размер потока : 418 Мбайт (7%)
Заголовок : [Original]
Язык : English
Default : Нет
Forced : Нет

Текст #1
Идентификатор : 4
Формат : UTF-8
Идентификатор кодека : S_TEXT/UTF8
Идентификатор кодека/Информация : UTF-8 Plain Text
Продолжительность : 1 ч. 18 м.
Битрейт : 37 бит/сек
Count of elements : 757
Размер потока : 21,5 Кбайт (0%)
Заголовок : Full
Язык : English
Default : Нет
Forced : Нет

Текст #2
Идентификатор : 5
Формат : UTF-8
Идентификатор кодека : S_TEXT/UTF8
Идентификатор кодека/Информация : UTF-8 Plain Text
Продолжительность : 1 ч. 24 м.
Битрейт : 37 бит/сек
Count of elements : 849
Размер потока : 23,0 Кбайт (0%)
Заголовок : SDH
Язык : English
Default : Нет
Forced : Нет

piratbit.cc



Скачать Хладнокровный через торрент https://i110.fastpic.ru/big/2019/0714/7e/0a464c23f651123c2f3ec62c4ef8617e.jpg Скачать фильм Хладнокровный через торрент бесплантно в хорошем качестве Описание: Генри, один из наиболее разыскиваемых киллеров в отставке, живёт отшельником на берегу озера в труднодоступной лесной чаще. ... 8.7 10 7
Торрент: Зарегистрирован [2019-07-14 17:38] · скачан: 102 раз
Статус: T временная
Размер: 5.87 GB
Как cкачать? Как скачать Хладнокровный через торрент | qTorrent

% Раздел Тема Автор DL S | L
T Фильмы 2019 [DVDrip, WEB-DLRip, HDrip] (DUB, MVO) [ 1.36 GB ] Хладнокровный / Cold Blood Legacy [2019 WEB-DLRip] MVO [HDRezka Studio] - ExKinoRay Enigma2010 Скачать
2168 | 109
T Фильмы 2019 [DVDrip, WEB-DLRip, HDrip] (DUB, MVO) [ 1.37 GB ] Хладнокровный / Cold Blood Legacy [2019 WEB-DLRip-AVC] MVO [HDRezka Studio] - ExKinoRay Enigma2010 Скачать
459 | 22
T Фильмы (WEB-DL 720p, 1080p) [ 3.07 GB ] Хладнокровный / Cold Blood Legacy [2019 WEB-DL 720p] MVO [HDRezka Studio] bober100 Скачать
12 | 0


>> Регистрируемся здесь <<






Отзывы и комментарии о схеме читаем и пишем здесь: ---> Отзывы и комментарии о схеме

Новые благодарочки в телеграм довольных пользователей:
скриншот   скриншот   скриншот   скриншот   скриншот

14-07-2019 23:57 Хладнокровный Скачать торрент  

Опа! Сам Жан Рено! И такой рейтинг? Что-то я не понимать!
Франция-Украина? Хммм...интересно!piratbit.cc



    Дорогой пользователь! Огромная просьба, поблагодарите релизера, оцените раздачу и оставьте свои комментарий, если Вы скачали Хладнокровный через торрент бесплатно! Внесите свою лепту в развитие PiratBit!
    Комментировать посты могут только пользователи прошедшие не сложную регистрацию
    Показать сообщения:    

    Хладнокровный через торрент
    Скачать бесплатно Хладнокровный
    Хладнокровный скачать торрент
    Хладнокровный смотреть онлайн
    Cкачать фильм Хладнокровный бесплатно
    Хладнокровный скачать торрент в хорошем качестве
    Хладнокровный смотреть онлайн бесплатно в хорошем качестве


    Вы не можете начинать темы
    Вы не можете отвечать на сообщения
    Вы не можете редактировать свои сообщения
    Вы не можете удалять свои сообщения
    Вы не можете голосовать в опросах
    Вы не можете прикреплять файлы к сообщениям
    Вы можете скачивать файлы