iTunes

1+1

iTunes

мы

iTunes

1

iTunes

Чернобыль

iTunes

Ральф против интернета

Лицензия

ПШазам

Лицензия

Игра престолов

Лицензия

30
pack

ВАЖНО

!!Акция!!

Alien_RageХит недели

RePack

Resident Evil 21

ИГРА 18+

pack

RePack

Metro:Exodus

!!Акция!!

Alien_Rage

RePack

fifa19

RePack

Assassins Creed: Odyssey

RePack

NEED FOR SPEED™ PAYBACK

3 сезон

9 сезон

Бесстыжие 9 сезон

Все сериалы

все сериалы на PB.wtf

RePack

FAR CRY 5
Ребята, катастрофически не хватает 7730р. для оплаты серверов за АВГУСТ (всвязи с блокировками трафик упал в 3 раза), 1-2р., выручайте.
  

Родители / Сезон: 2 / Серии: 1-20 из 20 (Александр Жигалкин) [2019, комедия, семейный, WEB-DLRip] piratbit.cc

Родители через торрент piratbit.cc

Раздают: 1 [ 9 KB/s ] Качают: 1 [ 0 KB/s ]
Размер: 5.87 GB | Добавлен: 8 д. назад | Торрент скачан:6 раз
Скачать  

26-07-2019 12:01 Родители Скачать торрент  

Родители Год выпуска: 2019
Страна: Россия
Жанр: комедия, семейный
Продолжительность: ~ 00:25:00 серия
Субтитры: отсутствуют

Режиссер: Александр Жигалкин



В ролях: Мария Порошина, Александр Самойленко, Александр Самойленко мл., Никита Митасов, Алексей Юрченко, Анастасия Крылова, Аксиния Кортнева

Описание: Прошло пять лет. Все в семье Соколовых подросли и повзрослели, кроме папы. Илья увлёкся киберспортом, Макс — наукой, а Тимофей уехал учиться в Германию. Его возвращение станет для родных сюрпризом — старший сын приезжает с невестой, и она установит свои правила. «РОДИТЕЛИ» — сериал, где есть место не только меткому семейному юмору, но и доле лирики, и даже философии. В общем, настоящее семейное шоу.

Качество: WEB-DLRip
Формат: AVI

Видео: 720x400 (1.80:1), 25 fps, XviD build 73 ~1600 kbps avg, 0.222 bit/pixel
Аудио: AC3 Dolby Digital, 48.0 kHz, 2/0 (L,R) ch, 192 kbps
скриншот  скриншот  скриншот  скриншот  

General
Complete name : D:\Roditeli.S02.WEB-DLRip.25Kuzmich\Roditeli.s02.e01.WEB-DLRip.25Kuzmich.avi
Format : AVI
Format/Info : Audio Video Interleave
File size : 300 MiB
Duration : 23 min 18 s
Overall bit rate : 1 803 kb/s
Writing application : VirtualDubMod 1.5.10.3 | www.virtualdub-fr.org || (build 2550/release)
Writing library : VirtualDubMod build 2550/release

Video
ID : 0
Format : MPEG-4 Visual
Format profile : Advanced Simple@L5
Format settings : BVOP1
Format settings, BVOP : 1
Format settings, QPel : No
Format settings, GMC : No warppoints
Format settings, Matrix : Default (MPEG)
Codec ID : XVID
Codec ID/Hint : XviD
Duration : 23 min 18 s
Bit rate : 1 601 kb/s
Width : 720 pixels
Height : 400 pixels
Display aspect ratio : 16:9
Frame rate : 25.000 FPS
Color space : YUV
Chroma subsampling : 4:2:0
Bit depth : 8 bits
Scan type : Progressive
Compression mode : Lossy
Bits/(Pixel*Frame) : 0.222
Stream size : 267 MiB (89%)
Writing library : XviD 73

Audio
ID : 1
Format : AC-3
Format/Info : Audio Coding 3
Codec ID : 2000
Duration : 23 min 18 s
Bit rate mode : Constant
Bit rate : 192 kb/s
Channel(s) : 2 channels
Channel positions : Front: L R
Sampling rate : 48.0 kHz
Frame rate : 31.250 FPS (1536 SPF)
Bit depth : 16 bits
Compression mode : Lossy
Stream size : 32.0 MiB (11%)
Alignment : Split accross interleaves
Interleave, duration : 40 ms (1.00 video frame)
Interleave, preload duratio : 500 ms
Service kind : Complete Main

Внимание! Раздача ведётся путём добавления новых серий; при каждом добавлении создаётся новый торрент. Чтобы начать докачку новой серии, пользователям необходимо сделать следующее:
Остановить скачивание.
Удалить старый торрент у себя из клиента (старые серии удалять не надо).
Скачать новый торрент и запустить его у себя в клиенте вместо старого, при этом указать клиенту путь в старую папку куда и должно происходить скачивание новых серий.

Ваш клиент при этом должен произвести хеширование (проверку) старой папки (если не производит сам - помогите ему сделать это), и будет докачивать только те серии которых у вас ещё нет. Старые серии при этом не удаляются, а продолжают раздаваться!
Eсли вы уже удалили старые серии, то предотвратить повторную закачку старых серий можно, отжав галочку в соответсвующих местах при запуске нового торрента. По возможности, желательно не удалять старые серии как можно дольше чтобы релизёр не столько продолжал раздавать старые серии, а смог сконцентрироваться на новых.
piratbit.cc



Скачать Родители через торрент https://i86.fastpic.ru/big/2019/0809/d0/58281afa05762eab7f605557b08bb7d0.jpg Скачать фильм Родители через торрент бесплантно в хорошем качестве Описание: Прошло пять лет. Все в семье Соколовых подросли и повзрослели, кроме папы. Илья увлёкся киберспортом, Макс — наукой, а Тимофей ... 10 10 4
Торрент: Зарегистрирован [2019-09-12 04:39] · скачан: 6 раз
Статус: √ проверено
Размер: 5.87 GB
Как cкачать? Как скачать Родители через торрент | qTorrent

% Раздел Тема Автор DL S | L
TNT serials [ 10.26 GB ] Родители / Сезон: 2 / Серии: 1-20 из 20 [2019 WEB-DL 720p] bober100 Скачать
1 | 0
TNT serials [ 16.66 GB ] Родители / Сезон: 2 / Серии: 1-20 из 20 [2019 WEB-DL 1080p] bober100 Скачать
1 | 2
TNT serials [ 5.96 GB ] Родители / Сезон: 2 / Серии: 1-20 из 20 [2019 WEBRip-AVC] bober100 Скачать
4 | 1


>> Регистрируемся здесь <<






Отзывы и комментарии о схеме читаем и пишем здесь: ---> Отзывы и комментарии о схеме

Новые благодарочки в телеграм довольных пользователей:
скриншот   скриншот   скриншот   скриншот   скриншот
    Дорогой пользователь! Огромная просьба, поблагодарите релизера, оцените раздачу и оставьте свои комментарий, если Вы скачали Родители через торрент бесплатно! Внесите свою лепту в развитие PiratBit!
    Комментировать посты могут только пользователи прошедшие не сложную регистрацию
    Показать сообщения:    

    Родители через торрент
    Скачать бесплатно Родители
    Родители скачать торрент
    Родители смотреть онлайн
    Cкачать фильм Родители бесплатно
    Родители скачать торрент в хорошем качестве
    Родители смотреть онлайн бесплатно в хорошем качестве


    Вы не можете начинать темы
    Вы не можете отвечать на сообщения
    Вы не можете редактировать свои сообщения
    Вы не можете удалять свои сообщения
    Вы не можете голосовать в опросах
    Вы не можете прикреплять файлы к сообщениям
    Вы можете скачивать файлы