iTunes

1+1

iTunes

мы

iTunes

1

iTunes

Чернобыль

1 сезон

Ральф против интернета

Лицензия

ПШазам

Лицензия

Игра престолов

Лицензия

30
pack

ВАЖНО

!!Акция!!

Alien_RageХит недели

RePack

Resident Evil 21

ИГРА 18+

pack

RePack

Metro:Exodus

!!Акция!!

Alien_Rage

RePack

fifa19

RePack

Assassins Creed: Odyssey

RePack

NEED FOR SPEED™ PAYBACK

3 сезон

9 сезон

Бесстыжие 9 сезон

Все сериалы

все сериалы на PB.wtf

RePack

FAR CRY 5
Ребята, катастрофически не хватает 7730р. для оплаты серверов за ИЮЛЬ (всвязи с блокировками трафик упал в 3 раза), 1-2р., выручайте.
  

Маугли дикой планеты / Terra Willy: Planète inconnue (Эрик Тости) [2019, мультфильм, фантастика, комедия, приключения, WEB-DL 1080p] DUB [iTunes] piratbit.cc

Маугли дикой планеты через торрент piratbit.cc

Раздают: 22 [ 2 MB/s ] Качают: 1 [ 0 KB/s ]
Размер: 2.94 GB | Добавлен: 16 д. назад | Торрент скачан:201 раз
Скачать  

28-07-2019 15:48 Маугли дикой планеты Скачать торрент  

Маугли дикой планеты / Terra Willy: Planète inconnue
Год выпуска: 2019
Страна: Франция
Жанр: мультфильм, фантастика, комедия, приключения
Продолжительность: 01:26:10
Перевод: Дублированный | iTunes
Субтитры: отсутствуют

Режиссер: Эрик Тости

rating

В ролях: Тимоте Фон Дорп, Эдуард Баэр, Мари-Южени Марешаль, Гийом Лебон, Барбара Тиссье, Джейсон Каннинг, Лэнден Битти

Описание: Попав в метеоритный дождь, юный космический исследователь Вилли оказывается на неизвестной планете. С помощью робота Бака он должен выжить здесь до прибытия спасательной миссии его родителей. Но батарея Бака быстро садится, и, чтобы спасти Бака и вернуться домой, Вилли придется найти новых друзей и научиться жить по законам джунглей дикой планеты.

Качество: WEB-DL 1080p
Формат: MKV

Видео: MPEG-4 AVC, 1920x804, 25.000 fps, 4397 Kbps
Аудио: Russian: AC3, 48.0 KHz, 6 ch, 384 kbps - iTunes
скриншот  скриншот  скриншот  скриншот  скриншот  

General
Unique ID : 176276028341769521636812808460914918105 (0x849D8734954FC7B88F2E295BB85402D9)
Complete name : Maugli.dikoj.planety.2019.WEB-DL.1080p.mkv
Format : Matroska
Format version : Version 2
File size : 2.94 GiB
Duration : 1 h 26 min
Overall bit rate : 4 878 kb/s
Encoded date : UTC 2019-08-05 22:51:51
Writing application : mkvmerge v5.8.0 ('No Sleep / Pillow') built on Sep 2 2012 15:37:04
Writing library : libebml v1.2.3 + libmatroska v1.3.0

Video
ID : 1
Format : AVC
Format/Info : Advanced Video Codec
Format profile : High@L4
Format settings, CABAC : Yes
Format settings, RefFrames : 5 frames
Codec ID : V_MPEG4/ISO/AVC
Duration : 1 h 26 min
Bit rate : 4 397 kb/s
Width : 1 920 pixels
Height : 804 pixels
Display aspect ratio : 2.40:1
Frame rate mode : Constant
Frame rate : 25.000 FPS
Color space : YUV
Chroma subsampling : 4:2:0
Bit depth : 8 bits
Scan type : Progressive
Bits/(Pixel*Frame) : 0.114
Stream size : 2.65 GiB (90%)
Language : English
Default : Yes
Forced : No
Color range : Limited
Color primaries : BT.709
Transfer characteristics : BT.709
Matrix coefficients : BT.709

Audio
ID : 2
Format : AC-3
Format/Info : Audio Coding 3
Format settings, Endianness : Big
Codec ID : A_AC3
Duration : 1 h 26 min
Bit rate mode : Constant
Bit rate : 384 kb/s
Channel(s) : 6 channels
Channel positions : Front: L C R, Side: L R, LFE
Sampling rate : 48.0 kHz
Frame rate : 31.250 FPS (1536 SPF)
Bit depth : 16 bits
Compression mode : Lossy
Stream size : 237 MiB (8%)
Title : iTunes
Language : Russian
Service kind : Complete Main
Default : Yes
Forced : No

Menu
00:00:00.000 : en:Глава 1
00:07:00.960 : en:Глава 2
00:13:09.960 : en:Глава 3
00:20:15.240 : en:Глава 4
00:26:24.600 : en:Глава 5
00:33:12.400 : en:Глава 6
00:39:00.840 : en:Глава 7
00:47:22.360 : en:Глава 8
00:52:50.800 : en:Глава 9
00:57:19.960 : en:Глава 10
01:02:52.560 : en:Глава 11
01:06:43.160 : en:Глава 12
01:10:12.520 : en:Глава 13
01:14:22.200 : en:Глава 14
01:18:11.640 : en:Глава 15

piratbit.cc



Скачать Маугли дикой планеты через торрент https://c.radikal.ru/c33/1907/31/5c07874dcd9c.jpg Скачать фильм Маугли дикой планеты через торрент бесплантно в хорошем качестве Описание: Попав в метеоритный дождь, юный космический исследователь Вилли оказывается на неизвестной планете. С помощью робота Бака он ... 9.9 10 14
Info! Золотая раздача, скачанное не засчитывается.
Торрент: Зарегистрирован [2019-08-06 00:46] · скачан: 201 раз
Статус: √ проверено
Размер: 2.94 GB
Как cкачать? Как скачать Маугли дикой планеты через торрент | qTorrent

% Раздел Тема Автор DL S | L
Иностранные мультфильмы [ 1.43 GB ] Маугли дикой планеты / Terra Willy: Planète inconnue [2019 мультфильм WEB-DLRip-AVC] - ExKinoRay Enigma2010 Скачать
1253 | 261
T Фильмы (мультфильмы) cо спонсором показа (Новинки AVI/MKV) [ 3.54 GB ] Маугли дикой планеты / Terra Willy: Planète inconnue [2019 мультфильм WEB-DL 720p] DUB [Line] bober100 Скачать
2 | 0
Иностранные мультфильмы [ 1.37 GB ] Маугли дикой планеты / Terra Willy: Planète inconnue [2019 мультфильм WEB-DLRip] bober100 Скачать
5 | 0


>> Регистрируемся здесь <<






Отзывы и комментарии о схеме читаем и пишем здесь: ---> Отзывы и комментарии о схеме

Новые благодарочки в телеграм довольных пользователей:
скриншот   скриншот   скриншот   скриншот   скриншот
    Дорогой пользователь! Огромная просьба, поблагодарите релизера, оцените раздачу и оставьте свои комментарий, если Вы скачали Маугли дикой планеты через торрент бесплатно! Внесите свою лепту в развитие PiratBit!
    Комментировать посты могут только пользователи прошедшие не сложную регистрацию
    Показать сообщения:    

    Маугли дикой планеты через торрент
    Скачать бесплатно Маугли дикой планеты
    Маугли дикой планеты скачать торрент
    Маугли дикой планеты смотреть онлайн
    Cкачать фильм Маугли дикой планеты бесплатно
    Маугли дикой планеты скачать торрент в хорошем качестве
    Маугли дикой планеты смотреть онлайн бесплатно в хорошем качестве


    Вы не можете начинать темы
    Вы не можете отвечать на сообщения
    Вы не можете редактировать свои сообщения
    Вы не можете удалять свои сообщения
    Вы не можете голосовать в опросах
    Вы не можете прикреплять файлы к сообщениям
    Вы можете скачивать файлы