iTunes

1+1

iTunes

мы

iTunes

1

iTunes

Чернобыль

iTunes

Ральф против интернета

Лицензия

ПШазам

Лицензия

Игра престолов

Лицензия

30
pack

ВАЖНО

!!Акция!!

Alien_RageХит недели

RePack

Resident Evil 21

ИГРА 18+

pack

RePack

Metro:Exodus

!!Акция!!

Alien_Rage

RePack

fifa19

RePack

Assassins Creed: Odyssey

RePack

NEED FOR SPEED™ PAYBACK

3 сезон

9 сезон

Бесстыжие 9 сезон

Все сериалы

все сериалы на PB.wtf

RePack

FAR CRY 5
Ребята, катастрофически не хватает 7730р. для оплаты серверов за АВГУСТ (всвязи с блокировками трафик упал в 3 раза), 1-2р., выручайте.
  

Проповедник / Пастырь / Preacher / Сезон: 4 / Серии: 1-6 из 10 (Майкл Словис, Эван Голдберг, Сет Роген) [2019, Фэнтези, драма, детектив, приключения, WEB-DLRip] MVO [AlexFilm] piratbit.cc

Проповедник через торрент piratbit.cc

Размер: 3.53 GB | Добавлен: 1 д. 10 ч. назад | Торрент скачан:0 раз
Скачать  

09-08-2019 05:36 Проповедник Скачать торрент  

Проповедник | Пастырь | Preacher Год выпуска: 2019
Страна: США
Жанр: Фэнтези, драма, детектив, приключения
Продолжительность: ~00:43:00
Перевод: Профессиональный (многоголосый закадровый) | AlexFilm
Субтитры: Русские (Forced, Full |«Amazon»|, английские (SDH)

Режиссёр: Майкл Словис, Эван Голдберг, Сет Роген

В ролях: Доминик Купер, Том Брук, У. Эрл Браун, Йен Коллетти, Джозеф Гилган, Люси Гриффитс, Джеки Эрл Хейли, Рут Негга, Дерек Уилсон, Анатол Юсеф и др.

Описание: Священник Джесси Кастер по воле случая стал носителем внутри своего естества странного существа по имени Генезис. Это дитя совокупления ангела и демона представляет собой одновременно чистый идеал и квинтэссенцию света, но также сгусток абсолютного зла. Генезис — единственное существо во Вселенной, которое может встать вровень с Богом, если того пожелает, а его носитель автоматически становится самым могущественным существом в материальном мире. И это проповедник Кастер.



Качество: WEB-DLRip
Формат: AVI

Видео: XviD, 720x400 (16:9), 23,976 fps, ~ 1599 kbps
Аудио: AC3, 48,0 kHz, 2 ch, 192 kbps | AlexFilm
Аудио: 48 kHz, AC3 2 ch, ~ 192 kbps


Реклама: Отсутствует
скриншот  скриншот  скриншот  скриншот  скриншот  

Format : AVI
Format/Info : Audio Video Interleave
File size : 593 MiB
Duration : 41mn 29s
Overall bit rate : 1 998 Kbps
Movie name : Проповедник 4х01: Масада
Director : Бёдвар (WEB-DLRip 400p)
Writing application : VirtualDubModRus 1.5.10.2 (build 2542/release)
Comment : 09.08.2019

Video
ID : 0
Format : MPEG-4 Visual
Format profile : Advanced Simple@L5
Format settings, BVOP : 1
Format settings, QPel : No
Format settings, GMC : No warppoints
Format settings, Matrix : Default (MPEG)
Codec ID : XVID
Codec ID/Hint : XviD
Duration : 41mn 29s
Bit rate : 1 600 Kbps
Width : 720 pixels
Height : 400 pixels
Display aspect ratio : 16:9
Frame rate : 23.976 (24000/1001) fps
Color space : YUV
Chroma subsampling : 4:2:0
Bit depth : 8 bits
Scan type : Progressive
Compression mode : Lossy
Bits/(Pixel*Frame) : 0.232
Stream size : 475 MiB (80%)
Writing library : XviD 67

Audio #1
ID : 1
Format : AC-3
Format/Info : Audio Coding 3
Mode extension : CM (complete main)
Format settings, Endianness : Big
Codec ID : 2000
Duration : 41mn 29s
Bit rate mode : Constant
Bit rate : 192 Kbps
Channel(s) : 2 channels
Channel positions : Front: L R
Sampling rate : 48.0 KHz
Frame rate : 31.250 fps (1536 spf)
Compression mode : Lossy
Stream size : 57.0 MiB (10%)
Alignment : Split accross interleaves
Interleave, duration : 42 ms (1.00 video frame)
Interleave, preload duratio : 500 ms

Audio #2
ID : 2
Format : AC-3
Format/Info : Audio Coding 3
Mode extension : CM (complete main)
Format settings, Endianness : Big
Codec ID : 2000
Duration : 41mn 29s
Bit rate mode : Constant
Bit rate : 192 Kbps
Channel(s) : 2 channels
Channel positions : Front: L R
Sampling rate : 48.0 KHz
Frame rate : 31.250 fps (1536 spf)
Compression mode : Lossy
Stream size : 57.0 MiB (10%)
Alignment : Split accross interleaves
Interleave, duration : 42 ms (1.00 video frame)
Interleave, preload duratio : 500 ms

При каждом добавлении создаётся новый торрент. Чтобы начать докачку новой серии, пользователям необходимо сделать следующее:
- остановить скачивание;
- удалить старый торрент у себя из клиента (старые серии удалять не надо);
- скачать новый торрент и запустить его у себя в клиенте вместо старого, при этом указать клиенту путь в старую папку, куда и должно происходить скачивание новых серий.
piratbit.cc



Скачать Проповедник через торрент https://d.radikal.ru/d24/1908/bd/e7a8919d27f7.png Скачать фильм Проповедник через торрент бесплантно в хорошем качестве Описание: Священник Джесси Кастер по воле случая стал носителем внутри своего естества странного существа по имени Генезис. Это дитя ... 10 10 2
Торрент: Зарегистрирован [2019-09-14 08:00] · скачан: 0 раз
Статус: √ проверено
Размер: 3.53 GB
Как cкачать? Как скачать Проповедник через торрент | qTorrent

% Раздел Тема Автор DL S | L
Зарубежные сериалы [ 4.92 GB ] Пастырь / Проповедник / Preacher / Сезон: 4 / Серии: 1-6 из 10 [2019 WEB-DLRip] DVO [Кубик в Кубе] bober100 Скачать
3 | 0
Зарубежные сериалы [ 13.94 GB ] Проповедник / Пастырь / Preacher / Сезон: 4 / Серии: 1-6 из 10 [2019 WEB-DL 1080p] MVO [AlexFilm] bober100 Скачать
1 | 0
Зарубежные сериалы [ 7.78 GB ] Пастырь / Проповедник / Preacher / Сезон: 4 / Серии: 1-6 из 10 [2019 WEB-DL 720p] [DVO] killermax2013 Скачать
2 | 2
Зарубежные сериалы [ 7.33 GB ] Пастырь / Проповедник / Preacher / Сезон: 4 / Серии: 1-6 из 10 [2019 WEB-DL 720p] MVO [Lostfilm] bober100 Скачать
3 | 1


>> Регистрируемся здесь <<






Отзывы и комментарии о схеме читаем и пишем здесь: ---> Отзывы и комментарии о схеме

Новые благодарочки в телеграм довольных пользователей:
скриншот   скриншот   скриншот   скриншот   скриншот
    Дорогой пользователь! Огромная просьба, поблагодарите релизера, оцените раздачу и оставьте свои комментарий, если Вы скачали Проповедник через торрент бесплатно! Внесите свою лепту в развитие PiratBit!
    Комментировать посты могут только пользователи прошедшие не сложную регистрацию
    Показать сообщения:    

    Проповедник через торрент
    Скачать бесплатно Проповедник
    Проповедник скачать торрент
    Проповедник смотреть онлайн
    Cкачать фильм Проповедник бесплатно
    Проповедник скачать торрент в хорошем качестве
    Проповедник смотреть онлайн бесплатно в хорошем качестве


    Вы не можете начинать темы
    Вы не можете отвечать на сообщения
    Вы не можете редактировать свои сообщения
    Вы не можете удалять свои сообщения
    Вы не можете голосовать в опросах
    Вы не можете прикреплять файлы к сообщениям
    Вы можете скачивать файлы