iTunes

1+1

iTunes

мы

iTunes

1

iTunes

Чернобыль

1 сезон

Ральф против интернета

Лицензия

ПШазам

Лицензия

Игра престолов

Лицензия

30
pack

ВАЖНО

!!Акция!!

Alien_RageХит недели

RePack

Resident Evil 21

ИГРА 18+

pack

RePack

Metro:Exodus

!!Акция!!

Alien_Rage

RePack

fifa19

RePack

Assassins Creed: Odyssey

RePack

NEED FOR SPEED™ PAYBACK

3 сезон

9 сезон

Бесстыжие 9 сезон

Все сериалы

все сериалы на PB.wtf

RePack

FAR CRY 5
Ребята, катастрофически не хватает 7730р. для оплаты серверов за ИЮЛЬ (всвязи с блокировками трафик упал в 3 раза), 1-2р., выручайте.
  

Чистая правда / All Is True (Кеннет Брана) [2018, Драма, биография, история, WEB-DL 1080p] MVO [iTunes] piratbit.cc

Чистая правда через торрент piratbit.cc

Раздают: 4 [ 345 KB/s ]
Размер: 3.75 GB | Добавлен: 10 д. назад | Торрент скачан:28 раз
Скачать  

12-08-2019 17:18 Чистая правда Скачать торрент  

Чистая правда / All Is True
Год выпуска: 2018
Страна: Великобритания
Жанр: Драма, биография, история
Продолжительность: 01:40:54
Перевод: Профессиональный многоголосый | iTunes
Субтитры: Русские, английские, украинские

Режиссер: Кеннет Брана

rating

В ролях: Кеннет Брана, Лолита Чакрабарти, Джек Колгрейв Херст, Даг Коллинг, Элеонора де Рохан, Джуди Денч, Фил Данстер, Фрейя Дуркан, Флора Истон, Сэм Эллис

Описание: Фильм рассказывает о последних годах жизни английского поэта и драматурга Уильяма Шекспира.

Качество: WEB-DL 1080p
Формат: MKV

Видео: MPEG-4 AVC, 4446 Кбит/с, 1920x796
Аудио#1: Русский (AC3, 6 ch, 384 Кбит/с)
Аудио#2: анлийский (AC3, 6 ch, 384 Кбит/с)
скриншот  скриншот  скриншот  скриншот  

Общее
Уникальный идентификатор : 180180342849654078130705995749223863391 (0x878D78C5D08766809F7A6F31C0F4945F)
Полное имя : All.Is.True.2019.WEB-DL.1080p.ELEKTRI4KA.UNIONGANG.mkv
Формат : Matroska
Версия формата : Version 2
Размер файла : 3,75 Гбайт
Продолжительность : 1 ч. 40 м.
Общий поток : 5320 Кбит/сек
Дата кодирования : UTC 2019-08-11 18:52:12
Программа кодирования : mkvmerge v7.8.0 ('River Man') 32bit built on Apr 3 2015 12:11:22
Библиотека кодирования : libebml v1.3.1 + libmatroska v1.4.2

Видео
Идентификатор : 3
Формат : AVC
Формат/Информация : Advanced Video Codec
Профиль формата : High@L4
Настройки формата : CABAC / 5 Ref Frames
Параметр CABAC формата : Да
Параметр RefFrames формата : 5 кадров
Идентификатор кодека : V_MPEG4/ISO/AVC
Продолжительность : 1 ч. 40 м.
Битрейт : 4446 Кбит/сек
Ширина : 1920 пикселей
Высота : 796 пикселей
Соотношение сторон : 2,40:1
Режим частоты кадров : Постоянный
Частота кадров : 23,976 (24000/1001) кадра/сек
Цветовое пространство : YUV
Субдискретизация насыщенности : 4:2:0
Битовая глубина : 8 бит
Тип развёртки : Прогрессивная
Бит/(Пиксели*Кадры) : 0.121
Размер потока : 3,13 Гбайт (84%)
Язык : English
Default : Да
Forced : Нет
Цветовой диапазон : Limited
Основные цвета : BT.709
Характеристики трансфера : BT.709
Коэффициенты матрицы : BT.709

Аудио #1
Идентификатор : 1
Формат : AC-3
Формат/Информация : Audio Coding 3
Коммерческое название : Dolby Digital
Идентификатор кодека : A_AC3
Продолжительность : 1 ч. 40 м.
Вид битрейта : Постоянный
Битрейт : 384 Кбит/сек
Каналы : 6 каналов
Channel layout : L R C LFE Ls Rs
Частота : 48,0 КГц
Частота кадров : 31,250 кадров/сек (1536 SPF)
Битовая глубина : 16 бит
Метод сжатия : С потерями
Размер потока : 277 Мбайт (7%)
Язык : Russian
ServiceKind/String : Complete Main
Default : Да
Forced : Нет

Аудио #2
Идентификатор : 2
Формат : AC-3
Формат/Информация : Audio Coding 3
Коммерческое название : Dolby Digital
Идентификатор кодека : A_AC3
Продолжительность : 1 ч. 40 м.
Вид битрейта : Постоянный
Битрейт : 384 Кбит/сек
Каналы : 6 каналов
Channel layout : L R C LFE Ls Rs
Частота : 48,0 КГц
Частота кадров : 31,250 кадров/сек (1536 SPF)
Битовая глубина : 16 бит
Метод сжатия : С потерями
Размер потока : 277 Мбайт (7%)
Язык : English
ServiceKind/String : Complete Main
Default : Нет
Forced : Нет

Текст #1
Идентификатор : 4
Формат : UTF-8
Идентификатор кодека : S_TEXT/UTF8
Идентификатор кодека/Информация : UTF-8 Plain Text
Язык : English
Default : Да
Forced : Нет

Текст #2
Идентификатор : 5
Формат : UTF-8
Идентификатор кодека : S_TEXT/UTF8
Идентификатор кодека/Информация : UTF-8 Plain Text
Язык : Russian
Default : Нет
Forced : Нет

Текст #3
Идентификатор : 6
Формат : UTF-8
Идентификатор кодека : S_TEXT/UTF8
Идентификатор кодека/Информация : UTF-8 Plain Text
Язык : Ukrainian
Default : Нет
Forced : Нет

Меню
00:00:00.000 : en:1
00:05:54.938 : en:2
00:12:25.161 : en:3
00:18:54.133 : en:4
00:24:21.460 : en:5
00:30:46.720 : en:6
00:35:48.271 : en:7
00:38:06.325 : en:8
00:50:11.674 : en:9
00:59:54.840 : en:10
01:02:07.888 : en:11
01:06:19.598 : en:12
01:13:43.082 : en:13
01:18:55.017 : en:14
01:28:06.693 : en:15
01:31:35.193 : en:16

piratbit.cc



Скачать Чистая правда через торрент https://b.radikal.ru/b10/1908/24/bdcb82a9d1af.png Скачать фильм Чистая правда через торрент бесплантно в хорошем качестве Описание: Фильм рассказывает о последних годах жизни английского поэта и драматурга Уильяма ... 10 10 3
Торрент: Зарегистрирован [2019-08-12 17:18] · скачан: 28 раз
Статус: √ проверено
Размер: 3.75 GB
Как cкачать? Как скачать Чистая правда через торрент | qTorrent

% Раздел Тема Автор DL S | L
Фильмы 2018 [DVDrip, WEB-DLRip, HDrip] (DUB, MVO) [ 1.42 GB ] Чистая правда / All Is True [2018 биография история BDRip] MVO bober100 Скачать
6 | 0


>> Регистрируемся здесь <<






Отзывы и комментарии о схеме читаем и пишем здесь: ---> Отзывы и комментарии о схеме

Новые благодарочки в телеграм довольных пользователей:
скриншот   скриншот   скриншот   скриншот   скриншот
    Дорогой пользователь! Огромная просьба, поблагодарите релизера, оцените раздачу и оставьте свои комментарий, если Вы скачали Чистая правда через торрент бесплатно! Внесите свою лепту в развитие PiratBit!
    Комментировать посты могут только пользователи прошедшие не сложную регистрацию
    Показать сообщения:    

    Чистая правда через торрент
    Скачать бесплатно Чистая правда
    Чистая правда скачать торрент
    Чистая правда смотреть онлайн
    Cкачать фильм Чистая правда бесплатно
    Чистая правда скачать торрент в хорошем качестве
    Чистая правда смотреть онлайн бесплатно в хорошем качестве


    Вы не можете начинать темы
    Вы не можете отвечать на сообщения
    Вы не можете редактировать свои сообщения
    Вы не можете удалять свои сообщения
    Вы не можете голосовать в опросах
    Вы не можете прикреплять файлы к сообщениям
    Вы можете скачивать файлы