iTunes

1+1

iTunes

мы

iTunes

1

iTunes

Чернобыль

1 сезон

Ральф против интернета

Лицензия

ПШазам

Лицензия

Игра престолов

Лицензия

30
pack

ВАЖНО

!!Акция!!

Alien_RageХит недели

RePack

Resident Evil 21

ИГРА 18+

pack

RePack

Metro:Exodus

!!Акция!!

Alien_Rage

RePack

fifa19

RePack

Assassins Creed: Odyssey

RePack

NEED FOR SPEED™ PAYBACK

3 сезон

9 сезон

Бесстыжие 9 сезон

Все сериалы

все сериалы на PB.wtf

RePack

FAR CRY 5
Ребята, катастрофически не хватает 7730р. для оплаты серверов за ИЮЛЬ (всвязи с блокировками трафик упал в 3 раза), 1-2р., выручайте.
  

Проповедник / Preacher / Сезон: 4 / Серии: 1-4 из 10 (Эван Голдберг, Сет Роген, Майкл Словис) [2019, Фэнтези, драма, детектив, приключения, WEBRip 1080p] MVO [IdeaFilm] piratbit.cc

Проповедник через торрент piratbit.cc

Качают: 4 [ 0 KB/s ]
Размер: 9.11 GB | Добавлен: 5 д. назад | Торрент скачан:4 раза
Скачать  

12-08-2019 20:12 Проповедник Скачать торрент  

Проповедник / Preacher Год выпуска: 2019
Страна: США
Жанр: фэнтези, драма, детектив, приключения
Продолжительность: ~00:43:00
Перевод: Любительский (многоголосый закадровый) | IdeaFilm
Субтитры: отсутствуют

Режиссёры: Эван Голдберг, Сет Роген, Майкл Словис

В ролях: Доминик Купер, Джозеф Гилган, Рут Негга, Люси Гриффитс, У. Эрл Браун, Том Брук, Анатол Юсеф, Йен Коллетти, Дерек Уилсон, Джеки Эрл Хейли и др.

Описание: Священник Джесси Кастер по воле случая стал носителем внутри своего естества странного существа по имени Генезис. Это дитя совокупления ангела и демона представляет собой одновременно чистый идеал и квинтэссенцию света, но также сгусток абсолютного зла. Генезис — единственное существо во Вселенной, которое может встать вровень с Богом, если того пожелает, а его носитель автоматически становится самым могущественным существом в материальном мире. И это проповедник Кастер.



Качество: WEBRip 1080p
Формат: MKV

Видео: 1920x1080 (16/9), 23,976 fps, AVC (х264), Main@L4.1, ~6913 kbps avg,0.139 bit/pixel
Аудио#1 Rus: :48 kHz, AC3 Dolby Digital, 3/2 (L,C,R,l,r) + LFE ch, ~384 kbps
Аудио#2 Eng: :48 kHz, AC3 Dolby Digital, 3/2 (L,C,R,l,r) + LFE ch, ~384 kbps
скриншот  скриншот  скриншот  скриншот  

Общее
Уникальный идентификатор : 247868436864452825861243595788885307079 (0xBA79B977B0938E0AEC9FE465023E2EC7)
Полное имя : I:\IDEAFILM\Preacher.S04.WEBRip.1080p\Preacher.S04E01.WEBRip.1080p.IdeaFilm.mkv
Формат : Matroska
Версия формата : Version 4
Размер файла : 2,28 Гбайт
Продолжительность : 43 м. 4 с.
Общий поток : 7564 Кбит/сек
Дата кодирования : UTC 2019-08-05 18:00:19
Программа кодирования : mkvmerge v25.0.0 (''Prog Noir'') 64-bit
Библиотека кодирования : libebml v1.3.6 + libmatroska v1.4.9

Видео
Идентификатор : 1
Формат : AVC
Формат/Информация : Advanced Video Codec
Профиль формата : Main@L4.1
Настройки формата : CABAC / 4 Ref Frames
Параметр CABAC формата : Да
Параметр RefFrames формата : 4 кадра
Идентификатор кодека : V_MPEG4/ISO/AVC
Продолжительность : 42 м. 24 с.
Битрейт : 6913 Кбит/сек
Ширина : 1920 пикселей
Высота : 1080 пикселей
Соотношение сторон : 16:9
Режим частоты кадров : Постоянный
Частота кадров : 23,976 (24000/1001) кадра/сек
Цветовое пространство : YUV
Субдискретизация насыщенности : 4:2:0
Битовая глубина : 8 бит
Тип развёртки : Прогрессивная
Бит/(Пиксели*Кадры) : 0.139
Размер потока : 2,05 Гбайт (90%)
Язык : English
Default : Да
Forced : Нет
Цветовой диапазон : Limited
Основные цвета : BT.709
Характеристики трансфера : BT.709
Коэффициенты матрицы : BT.709

Аудио #1
Идентификатор : 2
Формат : AC-3
Формат/Информация : Audio Coding 3
Коммерческое название : Dolby Digital
Идентификатор кодека : A_AC3
Продолжительность : 42 м. 24 с.
Вид битрейта : Постоянный
Битрейт : 384 Кбит/сек
Каналы : 6 каналов
Channel layout : L R C LFE Ls Rs
Частота : 48,0 КГц
Частота кадров : 31,250 кадров/сек (1536 SPF)
Битовая глубина : 16 бит
Метод сжатия : С потерями
Размер потока : 116 Мбайт (5%)
Заголовок : IdeaFilm
Язык : Russian
ServiceKind/String : Complete Main
Default : Да
Forced : Нет

Аудио #2
Идентификатор : 3
Формат : AC-3
Формат/Информация : Audio Coding 3
Идентификатор кодека : A_AC3
Продолжительность : 42 м. 24 с.
Битрейт : 384 Кбит/сек
Каналы : 6 каналов
Частота : 48,0 КГц
Частота кадров : 31,250 кадров/сек (1536 SPF)
Метод сжатия : С потерями
Размер потока : 116 Мбайт (5%)
Язык : English
Default : Нет
Forced : Нет

Внимание! Раздача ведётся путём добавления новых серий; при каждом добавлении создаётся новый торрент. Чтобы начать докачку новой серии,пользователям необходимо

сделать следующее:
(1) остановить скачивание,
(2) удалить старый торрент у себя из клиента (старые серии удалять не надо),
(3) скачать новый торрент и запустить его у себя в клиенте вместо старого, при этом указать клиенту путь в старую папку куда и должнопроисходить скачивание новых серий.

Ваш клиент при этом должен произвести хеширование (проверку) старой папки (если не производит сам - помогите ему сделать это), и будет докачивать только те серии
которых у вас ещё нет. Старые серии при этом не удаляются, а продолжают раздаваться!

Eсли вы уже удалили старые серии, то предотвратить повторную закачку старых серий можно, отжав галочку в соответствующих местах при запуске нового торрента.

По возможности, желательно не удалять старые серии как можно дольше чтобы релизёр не столько продолжал раздавать старые серии, а смог сконцентрироваться на новых.
piratbit.cc



Скачать Проповедник через торрент http://img16.lostpic.net/2019/08/05/b80119536ede8a70f5d31b763ca3a313.jpg Скачать фильм Проповедник через торрент бесплантно в хорошем качестве Описание: Священник Джесси Кастер по воле случая стал носителем внутри своего естества странного существа по имени Генезис. Это дитя ... 10 10 3
Торрент: Зарегистрирован [2019-08-17 19:24] · скачан: 4 раз
Статус: T временная
Размер: 9.11 GB
Как cкачать? Как скачать Проповедник через торрент | qTorrent

% Раздел Тема Автор DL S | L
Зарубежные сериалы [ 2.45 GB ] Пастырь / Проповедник / Preacher / Сезон: 4 / Серии: 1-3 из 10 [2019 WEB-DLRip] DVO [Кубик в Кубе] bober100 Скачать
2 | 0
Зарубежные сериалы [ 4.5 GB ] Проповедник / Пастырь / Preacher / Сезон: 4 / Серии: 1-2 из 10 [2019 WEB-DL 1080p] DVO [Кубик в Кубе] bober100 Скачать
4 | 0
Зарубежные сериалы [ 9.47 GB ] Проповедник / Preacher / Сезон: 4 / Серии: 1-4 из 10 [2019 WEBRip 1080p] MVO [LostFilm] bober100 Скачать
2 | 1
Зарубежные сериалы [ 2.35 GB ] Проповедник / Пастырь / Preacher / Сезон: 4 / Серии: 1-4 из 10 [2019 WEB-DLRip] MVO [AlexFilm] bober100 Скачать
1 | 0
Зарубежные сериалы [ 9.47 GB ] Проповедник / Пастырь / Preacher / Сезон: 4 / Серии: 1-4 из 10 [2019 WEB-DL 1080p] MVO [AlexFilm] bober100 Скачать
1 | 1
Зарубежные сериалы [ 5 GB ] Проповедник / Пастырь / Preacher / Сезон: 4 / Серии: 1-4 из 10 [2019 WEB-DL 720p] [MVO] killermax2013 Скачать
1 | 0
Зарубежные сериалы [ 3.82 GB ] Пастырь / Проповедник / Preacher / Сезон: 4 / Серии: 1-3 из 10 [2019 WEB-DL 720p] [DVO] killermax2013 Скачать
2 | 1


>> Регистрируемся здесь <<






Отзывы и комментарии о схеме читаем и пишем здесь: ---> Отзывы и комментарии о схеме

Новые благодарочки в телеграм довольных пользователей:
скриншот   скриншот   скриншот   скриншот   скриншот
    Дорогой пользователь! Огромная просьба, поблагодарите релизера, оцените раздачу и оставьте свои комментарий, если Вы скачали Проповедник через торрент бесплатно! Внесите свою лепту в развитие PiratBit!
    Комментировать посты могут только пользователи прошедшие не сложную регистрацию
    Показать сообщения:    

    Проповедник через торрент
    Скачать бесплатно Проповедник
    Проповедник скачать торрент
    Проповедник смотреть онлайн
    Cкачать фильм Проповедник бесплатно
    Проповедник скачать торрент в хорошем качестве
    Проповедник смотреть онлайн бесплатно в хорошем качестве


    Вы не можете начинать темы
    Вы не можете отвечать на сообщения
    Вы не можете редактировать свои сообщения
    Вы не можете удалять свои сообщения
    Вы не можете голосовать в опросах
    Вы не можете прикреплять файлы к сообщениям
    Вы можете скачивать файлы