iTunes

1+1

iTunes

мы

iTunes

1

iTunes

Чернобыль

1 сезон

Ральф против интернета

Лицензия

ПШазам

Лицензия

Игра престолов

Лицензия

30
pack

ВАЖНО

!!Акция!!

Alien_RageХит недели

RePack

Resident Evil 21

ИГРА 18+

pack

RePack

Metro:Exodus

!!Акция!!

Alien_Rage

RePack

fifa19

RePack

Assassins Creed: Odyssey

RePack

NEED FOR SPEED™ PAYBACK

3 сезон

9 сезон

Бесстыжие 9 сезон

Все сериалы

все сериалы на PB.wtf

RePack

FAR CRY 5
Ребята, катастрофически не хватает 7730р. для оплаты серверов за ИЮЛЬ (всвязи с блокировками трафик упал в 3 раза), 1-2р., выручайте.
  

Контакт / Сезон: 1 / Серии: 1-12 из 12 (Михаил Баркан) [2018, Детектив, WEB-DL 1080p] piratbit.cc

Контакт через торрент piratbit.cc

Раздают: 8 [ 159 KB/s ]
Размер: 21.47 GB | Добавлен: 6 д. назад | Торрент скачан:20 раз
Скачать  

13-08-2019 02:18 Контакт Скачать торрент  

КонтактГод выпуска: 2018
Страна: Россия, Украина
Жанр: Детектив
Продолжительность: ~ 00:45:00
Субтитры: отсутствуют

Режиссер: Михаил Баркан



В ролях: Павел Баршак, Матвей Зубалевич, Екатерина Маликова, Сергей Колос, Александр Семчев, Анна Сагайдачная, Владимир Гладкий, Михаил Жонин, Константин Косинский, Ольга Вивчарюк, Неонила Белецкая, Виталий Салий, Андрей Смирнов, Николай Боклан, Виктор Сарайкин, Нина Антонова, Галина Корнеева, Сергей Деревянко, Алексей Череватенко, Дато Роинишвили

Описание: Спецслужбы проводят взрывные работы на участке, где зафиксированы магнитные аномалии. Совершенно случайно в зоне взрыва оказываются три человека: преступник Владимир Голенко, фотохудожник Олег Малинин и неудачливый писатель Венедикт Тартаковский. В результате взрыва между этими людьми возникает странная связь – фотограф Малинин может читать мысли преступника Голенко, и даже видеть окружающий мир его глазами, а писатель Тартаковский может полностью управлять действиями Голенко и при этом общаться с Малининым на расстоянии. Тартаковский, получив в свое полное распоряжение преступника Голенко, решает его руками отомстить всем, кто мешал ему в жизни. Город захлестывает череда кровавых преступлений. Малинин, понимая, что его «видения» реальны, обращается в полицию, но там его сначала подозревают в соучастии в преступлениях, а потом отправляют в психиатрическую клинику. Чтобы остановить преступников Малинину приходится бежать из клиники, скрываться от полиции, пытаться вести самостоятельное расследование. Но чем ближе он подбирается к убийце, тем изощрённее становятся преступления, планируемые Тартаковским…

Качество: WEB-DL 1080p
Формат: MKV

Видео: MPEG4 AVC Video, H264, 16:9, 1920x1080, 25 fps, ~5100 kbps, 0.098 bit/pixel
Аудио: 48 kHz, AC3 Dolby Digital, 2/0 (L,R) ch, ~ 192 kbps

скриншот  скриншот  скриншот  скриншот  скриншот  

General
Unique ID : 251564625527871112398309010229154297623 (0xBD4195A372B17322934F7E88CF2C3717)
Complete name : D:\Kontakt.2018.WEB-DL.(1080p).Getty\Kontakt.e01.2018.WEB-DL.(1080p).Getty.mkv
Format : Matroska
Format version : Version 4 / Version 2
File size : 1.67 GiB
Duration : 45 min 7 s
Overall bit rate : 5 299 kb/s
Movie name : Kontakt.e01.2018.WEB-DL.(1080p).Getty
Encoded date : UTC 2019-08-12 22:16:15
Writing application : mkvmerge v7.8.0 ('River Man') 32bit built on Mar 27 2015 16:18:02
Writing library : libebml v1.3.1 + libmatroska v1.4.2

Video
ID : 1
Format : AVC
Format/Info : Advanced Video Codec
Format profile : High@L4
Format settings : CABAC / 4 Ref Frames
Format settings, CABAC : Yes
Format settings, ReFrames : 4 frames
Codec ID : V_MPEG4/ISO/AVC
Duration : 45 min 7 s
Bit rate : 5 105 kb/s
Width : 1 920 pixels
Height : 1 080 pixels
Display aspect ratio : 16:9
Frame rate mode : Constant
Frame rate : 25.000 FPS
Color space : YUV
Chroma subsampling : 4:2:0
Bit depth : 8 bits
Scan type : Progressive
Bits/(Pixel*Frame) : 0.098
Stream size : 1.61 GiB (96%)
Default : Yes
Forced : No

Audio
ID : 2
Format : AC-3
Format/Info : Audio Coding 3
Codec ID : A_AC3
Duration : 45 min 7 s
Bit rate mode : Constant
Bit rate : 192 kb/s
Channel(s) : 2 channels
Channel positions : Front: L R
Sampling rate : 48.0 kHz
Frame rate : 31.250 FPS (1536 SPF)
Bit depth : 16 bits
Compression mode : Lossy
Stream size : 62.0 MiB (4%)
Service kind : Complete Main
Default : Yes
Forced : No

Внимание! Раздача ведётся путём добавления новых серий; при каждом добавлении создаётся новый торрент.
Чтобы начать докачку новой серии, пользователям необходимо сделать следующее:
1. Остановить скачивание;
2. Удалить старый торрент у себя из клиента (старые серии удалять не надо);
3. Скачать новый торрент и запустить его у себя в клиенте вместо старого, при этом указать клиенту путь в старую папку куда и должно происходить скачивание новых серий. Ваш клиент при этом должен произвести хеширование (проверку) старой папки и будет докачивать только те серии, которых у вас ещё нет. Старые серии при этом не удаляются, а продолжают раздаваться! Eсли вы уже удалили старые серии, то предотвратить повторную закачку старых серий можно, отжав галочку в соответствующих местах при запуске нового торрента.
piratbit.cc



Скачать Контакт через торрент https://img16.lostpic.net/2019/08/13/903497d2613621a6b62aaa185b39f439.jpg Скачать фильм Контакт через торрент бесплантно в хорошем качестве Описание: Спецслужбы проводят взрывные работы на участке, где зафиксированы магнитные аномалии. Совершенно случайно в зоне взрыва ... 10 10 8
Торрент: Зарегистрирован [2019-08-16 03:41] · скачан: 20 раз
Статус: √ проверено
Размер: 21.47 GB
Как cкачать? Как скачать Контакт через торрент | qTorrent

% Раздел Тема Автор DL S | L
Наши сериалы [ 7.03 GB ] Контакт / Сезон: 1 / Серии: 1-12 из 12 [2018 WEB-DLRip-AVC] bober100 Скачать
5 | 0
Наши сериалы [ 8.09 GB ] Контакт / Сезон: 1 / Серии: 1-12 из 12 [2018 WEB-DL 720p] bober100 Скачать
7 | 1
Наши сериалы [ 7.29 GB ] Контакт / Сезон: 1 / Серии: 1-12 из 12 [2018 WEB-DLRip-AVC] bober100 Скачать
1 | 0
Наши сериалы [ 7.03 GB ] Контакт / Сезон: 1 / Серии: 1-12 из 12 [2018 WEB-DLRip] bober100 Скачать
16 | 2


>> Регистрируемся здесь <<






Отзывы и комментарии о схеме читаем и пишем здесь: ---> Отзывы и комментарии о схеме

Новые благодарочки в телеграм довольных пользователей:
скриншот   скриншот   скриншот   скриншот   скриншот
    Дорогой пользователь! Огромная просьба, поблагодарите релизера, оцените раздачу и оставьте свои комментарий, если Вы скачали Контакт через торрент бесплатно! Внесите свою лепту в развитие PiratBit!
    Комментировать посты могут только пользователи прошедшие не сложную регистрацию
    Показать сообщения:    

    Контакт через торрент
    Скачать бесплатно Контакт
    Контакт скачать торрент
    Контакт смотреть онлайн
    Cкачать фильм Контакт бесплатно
    Контакт скачать торрент в хорошем качестве
    Контакт смотреть онлайн бесплатно в хорошем качестве


    Вы не можете начинать темы
    Вы не можете отвечать на сообщения
    Вы не можете редактировать свои сообщения
    Вы не можете удалять свои сообщения
    Вы не можете голосовать в опросах
    Вы не можете прикреплять файлы к сообщениям
    Вы можете скачивать файлы