iTunes

1+1

iTunes

мы

iTunes

1

iTunes

Чернобыль

1 сезон

Ральф против интернета

Лицензия

ПШазам

Лицензия

Игра престолов

Лицензия

30
pack

ВАЖНО

!!Акция!!

Alien_RageХит недели

RePack

Resident Evil 21

ИГРА 18+

pack

RePack

Metro:Exodus

!!Акция!!

Alien_Rage

RePack

fifa19

RePack

Assassins Creed: Odyssey

RePack

NEED FOR SPEED™ PAYBACK

3 сезон

9 сезон

Бесстыжие 9 сезон

Все сериалы

все сериалы на PB.wtf

RePack

FAR CRY 5
Ребята, катастрофически не хватает 7730р. для оплаты серверов за ИЮЛЬ (всвязи с блокировками трафик упал в 3 раза), 1-2р., выручайте.
  

Террор / The Terror / Сезон: 2 / Серии: 1- из 10 (Тим Милантс, Эдвард Бергер, Серджо Мимика-Геззан) [2019, Ужасы, драма, триллер, WEB-DL 1080p] MVO [TVShows] piratbit.cc

Террор через торрент piratbit.cc

Размер: 2.03 GB | Добавлен: 6 д. назад | Торрент скачан:3 раза
Скачать  

16-08-2019 09:26 Террор Скачать торрент  

Террор / The Terror Год выпуска: 2019
Страна: США
Жанр: Ужасы, драма, триллер
Продолжительность: ~0:52:00
Перевод: Профессиональный (многоголосый закадровый) | TVShows
Субтитры: отсутствуют

Режиссёр: Тим Милантс, Эдвард Бергер, Серджо Мимика-Геззан

В ролях: Тобайас Мензис, Кристос Лоутон, Нив Нилсен, Адам Нагаитис, Пол Рэди, Киран Хайндс, Иэн Харт, Синго Усами, Дерек Мио, Джаред Харрис

Описание: В 1942 году на калифорнийском острове Терминал в местной японской общине происходит самоубийство женщины, после чего некоторые начинают считать, что тут объявилась бакэмоно — древняя японская нечисть, способная менять форму. Вскоре президент США санкционировал интернирование, в результате около 120 тысяч живших в Америке японцев были насильственно выселены с Тихоокеанского побережья и помещены в специальные лагеря. Вместе с интернированными туда пробралось и зло.

Сэмпл
rating

Качество: WEB-DL 1080p
Контейнер: MKV

Видео: MPEG-4 AVC, 1920x1080, 23.976 fps, ~5000 Kbps
Аудио 1: Русский, AC3, 48 КГц, 2 ch, 448 Kbps
Аудио 2: Английский, AAC, 44.1 КГц, 2 ch, 126 Kbps


Реклама: Отсутствует
General
Unique ID : 266868351088760965917120354257996800275 (0xC8C4F9903C49BEED4CF0B1119D6EE113)
Complete name : The.Terror.S02E01.1080p.TVShows.mkv
Format : Matroska
Format version : Version 4 / Version 2
File size : 2.03 GiB
Duration : 52 min 15 s
Overall bit rate : 5 566 kb/s
Encoded date : UTC 2019-08-16 07:12:54
Writing application : mkvmerge v33.1.0 ('Primrose') 64-bit
Writing library : libebml v1.3.7 + libmatroska v1.5.0

Video
ID : 1
Format : AVC
Format/Info : Advanced Video Codec
Format profile : High@L4
Format settings : CABAC / 3 Ref Frames
Format settings, CABAC : Yes
Format settings, ReFrames : 3 frames
Codec ID : V_MPEG4/ISO/AVC
Duration : 52 min 15 s
Bit rate mode : Constant
Bit rate : 5 000 kb/s
Width : 1 920 pixels
Height : 1 080 pixels
Display aspect ratio : 16:9
Frame rate mode : Constant
Frame rate : 23.976 (24000/1001) FPS
Color space : YUV
Chroma subsampling : 4:2:0
Bit depth : 8 bits
Scan type : Progressive
Bits/(Pixel*Frame) : 0.101
Stream size : 1.82 GiB (90%)
Default : Yes
Forced : No

Audio #1
ID : 2
Format : AC-3
Format/Info : Audio Coding 3
Codec ID : A_AC3
Duration : 52 min 15 s
Bit rate mode : Constant
Bit rate : 448 kb/s
Channel(s) : 2 channels
Channel positions : Front: L R
Sampling rate : 48.0 kHz
Frame rate : 31.250 FPS (1536 SPF)
Bit depth : 16 bits
Compression mode : Lossy
Delay relative to video : -36 ms
Stream size : 167 MiB (8%)
Title : TVShows
Language : Russian
Service kind : Complete Main
Default : Yes
Forced : Yes

Audio #2
ID : 3
Format : AAC
Format/Info : Advanced Audio Codec
Format profile : LC
Codec ID : A_AAC-2
Duration : 52 min 15 s
Bit rate : 126 kb/s
Channel(s) : 2 channels
Channel positions : Front: L R
Sampling rate : 44.1 kHz
Frame rate : 43.066 FPS (1024 SPF)
Compression mode : Lossy
Delay relative to video : -36 ms
Stream size : 46.9 MiB (2%)
Title : Original
Language : English
Default : No
Forced : No
скриншот  скриншот  скриншот  скриншот  
Внимание! Раздача ведётся путём добавления новых серий; при каждом добавлении создаётся новый торрент.
Чтобы начать докачку новой серии, пользователям необходимо сделать следующее:
1. Остановить скачивание;
2. Удалить старый торрент у себя из клиента (старые серии удалять не надо);
3. Скачать новый торрент и запустить его у себя в клиенте вместо старого, при этом указать клиенту путь в старую папку куда и должно происходить скачивание новых серий. Ваш клиент при этом должен произвести хеширование (проверку) старой папки и будет докачивать только те серии, которых у вас ещё нет. Старые серии при этом не удаляются, а продолжают раздаваться! Eсли вы уже удалили старые серии, то предотвратить повторную закачку старых серий можно, отжав галочку в соответствующих местах при запуске нового торрента.
piratbit.cc



Скачать Террор через торрент https://i90.fastpic.ru/big/2019/0816/90/e8b193b40bdcd014702c8a6f0f47eb90.jpg Скачать фильм Террор через торрент бесплантно в хорошем качестве Описание: В 1942 году на калифорнийском острове Терминал в местной японской общине происходит самоубийство женщины, после чего некоторые ... 10 10 2
Торрент: Зарегистрирован [2019-08-16 09:26] · скачан: 3 раз
Статус: √ проверено
Размер: 2.03 GB
Как cкачать? Как скачать Террор через торрент | qTorrent

% Раздел Тема Автор DL S | L
Зарубежные сериалы [ 1.37 GB ] Террор / The Terror / Сезон 2 / Серии 1- из 10 [2019 WEB-DL 720p] MVO [AlexFilm] bober100 Скачать
2 | 0
Зарубежные сериалы [ 1 GB ] Террор / The Terror / Сезон: 2 / Серии: 1 из 10 [2019 история WEB-DLRip] DVO [Кубик в Кубе] bober100 Скачать
1 | 0
Зарубежные сериалы [ 738 MB ] Террор / The Terror / Сезон: 2 / Серии: 1 из 10 [2019 история WEB-DLRip] MVO [LostFilm] bober100 Скачать
4 | 0
Зарубежные сериалы [ 738 MB ] Террор / The Terror / Сезон: 2 / Серии: 1- из 10 [2019 WEB-DLRip] MVO [AMC] bober100 Скачать
3 | 0
Зарубежные сериалы [ 2.85 GB ] Террор / The Terror / Сезон: 2 / Серии: 1- из 10 [2019 WEB-DL 1080p] MVO [AMC] bober100 Скачать
2 | 0
Зарубежные сериалы [ 3.01 GB ] Террор / The Terror / Сезон: 2 / Серия: 1- из 10 [2019 история WEB-DL 1080p] MVO [LostFilm] bober100 Скачать
1 | 0
Зарубежные сериалы [ 1.46 GB ] Террор / The Terror / Сезон: 2 / Серии: 1- из 10 [2019 WEB-DL 720p] MVO [LostFilm] bober100 Скачать
1 | 0


>> Регистрируемся здесь <<






Отзывы и комментарии о схеме читаем и пишем здесь: ---> Отзывы и комментарии о схеме

Новые благодарочки в телеграм довольных пользователей:
скриншот   скриншот   скриншот   скриншот   скриншот
    Дорогой пользователь! Огромная просьба, поблагодарите релизера, оцените раздачу и оставьте свои комментарий, если Вы скачали Террор через торрент бесплатно! Внесите свою лепту в развитие PiratBit!
    Комментировать посты могут только пользователи прошедшие не сложную регистрацию
    Показать сообщения:    

    Террор через торрент
    Скачать бесплатно Террор
    Террор скачать торрент
    Террор смотреть онлайн
    Cкачать фильм Террор бесплатно
    Террор скачать торрент в хорошем качестве
    Террор смотреть онлайн бесплатно в хорошем качестве


    Вы не можете начинать темы
    Вы не можете отвечать на сообщения
    Вы не можете редактировать свои сообщения
    Вы не можете удалять свои сообщения
    Вы не можете голосовать в опросах
    Вы не можете прикреплять файлы к сообщениям
    Вы можете скачивать файлы