iTunes

1+1

iTunes

мы

iTunes

1

iTunes

Чернобыль

1 сезон

Ральф против интернета

Лицензия

ПШазам

Лицензия

Игра престолов

Лицензия

30
pack

ВАЖНО

!!Акция!!

Alien_RageХит недели

RePack

Resident Evil 21

ИГРА 18+

pack

RePack

Metro:Exodus

!!Акция!!

Alien_Rage

RePack

fifa19

RePack

Assassins Creed: Odyssey

RePack

NEED FOR SPEED™ PAYBACK

3 сезон

9 сезон

Бесстыжие 9 сезон

Все сериалы

все сериалы на PB.wtf

RePack

FAR CRY 5
Ребята, катастрофически не хватает 7730р. для оплаты серверов за ИЮЛЬ (всвязи с блокировками трафик упал в 3 раза), 1-2р., выручайте.
  

Террор / The Terror / Сезон: 2 / Серии: 1- из 10 (Эдвард Бергер) [2019, ужасы, драма, триллер, WEB-DL 720p] MVO [LostFilm] piratbit.cc

Террор через торрент piratbit.cc

Размер: 1.46 GB | Добавлен: 6 д. назад | Торрент скачан:11 раз
Скачать  

16-08-2019 09:35 Террор Скачать торрент  

Террор / The Terror
Год выпуска: 2019
Страна: США
Жанр: Ужасы, триллер, драма, история, фэнтези
Продолжительность: ~ 00:52:00
Перевод: Профессиональный (многоголосый) | LostFilm
Субтитры: Английские

Режиссер: Тим Милантс, Эдвард Бергер, Серджо Мимика-Геззан

rating

В ролях: Джаред Харрис, Тобайас Мензис, Пол Рэди, Адам Нагаитис, Иэн Харт, Нив Нилсен, Киаран Хайндс, Кристос Лоутон, Дерек Мио, Синго Усами и другие.

Описание: Второй сезон. В 1942 году в разгар Второй мировой войны президент США санкционировал интернирование, в результате чего около 120 тысяч японцев, живших в Америке, были насильственно выселены с Тихоокеанского побережья и помещены в специальные лагеря. Вместе с интернированными там оказалось нечто древнее и зловещее.

Качество: WEB-DL 720p
Формат: MKV

Видео: 1280x720 at 23.976 fps, MPEG-4 AVC, ~3000 kbps avg
Аудио#1: Russian: 48 kHz, AC3, 2/0 (L,R) ch, ~384.00 kbps avg
Аудио#2: English: 48 kHz, E-AC3, 3/2 (L,C,R,l,r) + LFE ch, ~640.00 kbps avg


Реклама отсутствует
Без заставки и логотипа
скриншот  скриншот  скриншот  скриншот  скриншот  

General
Unique ID : 193964736985371682087643288575933289815 (0x91EC3FDFFCDEA689B5CE98A724CE1557)
Complete name : The.Terror.S02E01.Infamy.A.Sparrow.in.a.Swallows.Nest.AMZN.WEB-DL.720p.mkv
Format : Matroska
Format version : Version 4
File size : 1.46 GiB
Duration : 51 min 37 s
Overall bit rate : 4 042 kb/s
Encoded date : UTC 2019-08-16 08:43:29
Writing application : mkvmerge v7.9.0 ('Birds') 64bit
Writing library : libebml v1.3.1 + libmatroska v1.4.2

Video
ID : 1
Format : AVC
Format/Info : Advanced Video Codec
Format profile : High@L3.1
Format settings : CABAC / 4 Ref Frames
Format settings, CABAC : Yes
Format settings, ReFrames : 4 frames
Codec ID : V_MPEG4/ISO/AVC
Duration : 51 min 37 s
Bit rate mode : Constant
Bit rate : 3 015 kb/s
Nominal bit rate : 6 000 kb/s
Width : 1 280 pixels
Height : 720 pixels
Display aspect ratio : 16:9
Frame rate mode : Constant
Frame rate : 23.976 (24000/1001) FPS
Color space : YUV
Chroma subsampling : 4:2:0
Bit depth : 8 bits
Scan type : Progressive
Bits/(Pixel*Frame) : 0.136
Stream size : 1.09 GiB (75%)
Language : English
Default : Yes
Forced : No
Color range : Limited
Color primaries : BT.709
Transfer characteristics : BT.709
Matrix coefficients : BT.709

Audio #1
ID : 2
Format : AC-3
Format/Info : Audio Coding 3
Commercial name : Dolby Digital
Codec ID : A_AC3
Duration : 51 min 37 s
Bit rate mode : Constant
Bit rate : 384 kb/s
Channel(s) : 2 channels
Channel layout : L R
Sampling rate : 48.0 kHz
Frame rate : 31.250 FPS (1536 SPF)
Bit depth : 16 bits
Compression mode : Lossy
Stream size : 142 MiB (10%)
Title : LostFilm
Language : Russian
Service kind : Complete Main
Default : Yes
Forced : No

Audio #2
ID : 3
Format : E-AC-3
Format/Info : Enhanced AC-3
Commercial name : Dolby Digital Plus
Codec ID : A_EAC3
Duration : 51 min 37 s
Bit rate mode : Constant
Bit rate : 640 kb/s
Channel(s) : 6 channels
Channel layout : L R C LFE Ls Rs
Sampling rate : 48.0 kHz
Frame rate : 31.250 FPS (1536 SPF)
Compression mode : Lossy
Stream size : 236 MiB (16%)
Title : original
Language : English
Service kind : Complete Main
Default : No
Forced : No

Text
ID : 4
Format : UTF-8
Codec ID : S_TEXT/UTF8
Codec ID/Info : UTF-8 Plain Text
Duration : 45 min 34 s
Bit rate : 40 b/s
Count of elements : 493
Stream size : 13.5 KiB (0%)
Language : English
Default : No
Forced : No

Когда раздача ведётся путём добавления новых серий, при каждом добавлении создётся новый торрент. Чтобы начать докачку новой серии, пользователям необходимо сделать следующее:
(1) остановить скачивание,
(2) удалить старый торрент у себя из клиента (старые серии удалять не надо),
(3) скачать новый торрент и запустить его у себя в клиенте вместо старого, при этом указать клиенту путь в старую папку, куда и должно происходить скачивание новых серий.
Ваш клиент при этом должен произвести хеширование (проверку) старой папки (если не производит сам - помогите ему сделать это), и будет докачивать только те серии, которых у вас ещё нет. Старые серии при этом не удаляются, а продолжают раздаваться!
Eсли вы уже удалили старые серии, то предотвратить повторную закачку старых серий можно, отжав галочку в соответсвующих местах при запуске нового торрента. По возможности, желательно не удалять старые серии как можно дольше, чтобы релизёр не столько продолжал раздавать старые серии, а смог сконцентрироваться на новых.
piratbit.cc



Скачать Террор через торрент https://img15.lostpic.net/2019/08/16/b2b59d4aaedd00fb825376fae8ae96d6.jpg Скачать фильм Террор через торрент бесплантно в хорошем качестве Описание: Второй сезон. В 1942 году в разгар Второй мировой войны президент США санкционировал интернирование, в результате чего около 120 ... 9.3 10 3
Торрент: Зарегистрирован [2019-08-16 09:35] · скачан: 11 раз
Статус: √ проверено
Размер: 1.46 GB
Как cкачать? Как скачать Террор через торрент | qTorrent

% Раздел Тема Автор DL S | L
Зарубежные сериалы [ 1.37 GB ] Террор / The Terror / Сезон 2 / Серии 1- из 10 [2019 WEB-DL 720p] MVO [AlexFilm] bober100 Скачать
2 | 0
Зарубежные сериалы [ 1 GB ] Террор / The Terror / Сезон: 2 / Серии: 1 из 10 [2019 история WEB-DLRip] DVO [Кубик в Кубе] bober100 Скачать
1 | 0
Зарубежные сериалы [ 738 MB ] Террор / The Terror / Сезон: 2 / Серии: 1 из 10 [2019 история WEB-DLRip] MVO [LostFilm] bober100 Скачать
4 | 0
Зарубежные сериалы [ 738 MB ] Террор / The Terror / Сезон: 2 / Серии: 1- из 10 [2019 WEB-DLRip] MVO [AMC] bober100 Скачать
3 | 0
Зарубежные сериалы [ 2.85 GB ] Террор / The Terror / Сезон: 2 / Серии: 1- из 10 [2019 WEB-DL 1080p] MVO [AMC] bober100 Скачать
2 | 0
Зарубежные сериалы [ 3.01 GB ] Террор / The Terror / Сезон: 2 / Серия: 1- из 10 [2019 история WEB-DL 1080p] MVO [LostFilm] bober100 Скачать
1 | 0
Зарубежные сериалы [ 2.03 GB ] Террор / The Terror / Сезон: 2 / Серии: 1- из 10 [2019 WEB-DL 1080p] MVO [TVShows] bober100 Скачать
1 | 0


>> Регистрируемся здесь <<






Отзывы и комментарии о схеме читаем и пишем здесь: ---> Отзывы и комментарии о схеме

Новые благодарочки в телеграм довольных пользователей:
скриншот   скриншот   скриншот   скриншот   скриншот
    Дорогой пользователь! Огромная просьба, поблагодарите релизера, оцените раздачу и оставьте свои комментарий, если Вы скачали Террор через торрент бесплатно! Внесите свою лепту в развитие PiratBit!
    Комментировать посты могут только пользователи прошедшие не сложную регистрацию
    Показать сообщения:    

    Террор через торрент
    Скачать бесплатно Террор
    Террор скачать торрент
    Террор смотреть онлайн
    Cкачать фильм Террор бесплатно
    Террор скачать торрент в хорошем качестве
    Террор смотреть онлайн бесплатно в хорошем качестве


    Вы не можете начинать темы
    Вы не можете отвечать на сообщения
    Вы не можете редактировать свои сообщения
    Вы не можете удалять свои сообщения
    Вы не можете голосовать в опросах
    Вы не можете прикреплять файлы к сообщениям
    Вы можете скачивать файлы