iTunes

1+1

iTunes

мы

iTunes

1

iTunes

Чернобыль

iTunes

Ральф против интернета

Лицензия

ПШазам

Лицензия

Игра престолов

Лицензия

30
pack

ВАЖНО

!!Акция!!

Alien_RageХит недели

RePack

Resident Evil 21

ИГРА 18+

pack

RePack

Metro:Exodus

!!Акция!!

Alien_Rage

RePack

fifa19

RePack

Assassins Creed: Odyssey

RePack

NEED FOR SPEED™ PAYBACK

3 сезон

9 сезон

Бесстыжие 9 сезон

Все сериалы

все сериалы на PB.wtf

RePack

FAR CRY 5
Ребята, катастрофически не хватает 7730р. для оплаты серверов за АВГУСТ (всвязи с блокировками трафик упал в 3 раза), 1-2р., выручайте.
  

Карнивал Роу / Carnival Row / Сезон: 1 / Серии: 1-4 из 8 (Джон Эмиел) [2019, фэнтези, триллер, детектив, WEB-DL 1080p] MVO [LostFilm] piratbit.cc

Карнивал Роу через торрент piratbit.cc

Раздают: 5 [ 2 MB/s ] Качают: 5 [ 1 MB/s ]
Размер: 10.77 GB | Добавлен: 1 д. 14 ч. назад | Торрент скачан:10 раз
Скачать  

03-09-2019 03:18 Карнивал Роу Скачать торрент  

Карнивал Роу | Carnival Row
«***»
Производство: США
Год выпуска: 2019
Жанр: фэнтези, триллер, детектив
Продолжительность: ~ 01:00:00 серия
Премьера (мир): 30 августа 2019
Перевод: Профессиональный (многоголосый закадровый) | LostFilm
Субтитры: Русские, английские, испанские, французские и т.д

Режиссёр: Джон Эмиел, Анна Ферстер, Энди Годдард

В ролях: Орландо Блум, Кара Делевинь, Карла Кроум, Арти Фрушан, Индира Варма, Вадж Али, Мейв Дермоди, Эндрю Гауэр, Дэвид Гяси, Джэми Харрис

Описание:
Действие сериала разворачивается в неовикторианском мегаполисе, где укрываются мифические существа, стекаясь туда из своих разоренных войной земель.



Качество: WEB-DL 1080p (AMZN)
Формат: MKV

Видео: AVC, 1920 x 1080 (1.778), 23.976 fps, ~5593 kbps
Аудио Rus: AC-3, 48 kHz, 2 ch, 384 kbps |AlexFilm|
Аудио Eng: E-AC-3, 48 kHz, 6 ch, 640 kbps |Original|


Реклама:Отсутствует
Общее
Уникальный идентификатор : 131593625571660406499306519369811101260 (0x630002A96FB7D259C1642E79500A064C)
Полное имя : Carnival.Row.S01Е01.AMZN.WEB-DL.1080p.LostFilm.mkv
Формат : Matroska
Версия формата : Version 4
Размер файла : 2,80 Гбайт
Продолжительность : 1 ч. 0 м.
Общий поток : 6607 Кбит/сек
Дата кодирования : UTC 2019-09-03 02:22:10
Программа кодирования : mkvmerge v37.0.0 ('Leave It') 64-bit
Библиотека кодирования : libebml v1.3.9 + libmatroska v1.5.2

Видео
Идентификатор : 1
Формат : AVC
Формат/Информация : Advanced Video Codec
Профиль формата : High@L4
Настройки формата : CABAC / 4 Ref Frames
Параметр CABAC формата : Да
Параметр RefFrames формата : 4 кадра
Идентификатор кодека : V_MPEG4/ISO/AVC
Продолжительность : 1 ч. 0 м.
Вид битрейта : Постоянный
Битрейт : 5593 Кбит/сек
Номинальный битрейт : 10000 Кбит/сек
Ширина : 1920 пикселей
Высота : 1080 пикселей
Соотношение сторон : 16:9
Режим частоты кадров : Постоянный
Частота кадров : 23,976 (24000/1001) кадра/сек
Цветовое пространство : YUV
Субдискретизация насыщенности : 4:2:0
Битовая глубина : 8 бит
Тип развёртки : Прогрессивная
Бит/(Пиксели*Кадры) : 0.112
Размер потока : 2,37 Гбайт (84%)
Default : Да
Forced : Нет
Цветовой диапазон : Limited
Основные цвета : BT.709
Характеристики трансфера : BT.709
Коэффициенты матрицы : BT.709

Аудио #1
Идентификатор : 2
Формат : AC-3
Формат/Информация : Audio Coding 3
Коммерческое название : Dolby Digital
Идентификатор кодека : A_AC3
Продолжительность : 1 ч. 0 м.
Вид битрейта : Постоянный
Битрейт : 384 Кбит/сек
Каналы : 2 канала
ChannelLayout : L R
Частота : 48,0 КГц
Частота кадров : 31,250 кадров/сек (1536 SPF)
Битовая глубина : 16 бит
Метод сжатия : С потерями
Размер потока : 167 Мбайт (6%)
Заголовок : LostFilm
Язык : Russian
Default : Да
Forced : Нет

Аудио #2
Идентификатор : 3
Формат : E-AC-3
Формат/Информация : Enhanced AC-3
Коммерческое название : Dolby Digital Plus
Идентификатор кодека : A_EAC3
Продолжительность : 1 ч. 0 м.
Вид битрейта : Постоянный
Битрейт : 640 Кбит/сек
Каналы : 6 каналов
ChannelLayout : L R C LFE Ls Rs
Частота : 48,0 КГц
Частота кадров : 31,250 кадров/сек (1536 SPF)
Метод сжатия : С потерями
Размер потока : 277 Мбайт (10%)
Язык : English
Default : Нет
Forced : Нет

Текст #1
Идентификатор : 4
Формат : UTF-8
Идентификатор кодека : S_TEXT/UTF8
Идентификатор кодека/Информация : UTF-8 Plain Text
Продолжительность : 46 м. 35 с.
Битрейт : 2 бит/сек
ElementCount : 17
Размер потока : 969 байт (0%)
Заголовок : Forced
Язык : Russian
Default : Да
Forced : Нет

Текст #2
Идентификатор : 5
Формат : UTF-8
Идентификатор кодека : S_TEXT/UTF8
Идентификатор кодека/Информация : UTF-8 Plain Text
Продолжительность : 57 м. 31 с.
Битрейт : 63 бит/сек
ElementCount : 1002
Размер потока : 26,9 Кбайт (0%)
Язык : English
Default : Нет
Forced : Нет

Текст #3
Идентификатор : 6
Формат : UTF-8
Идентификатор кодека : S_TEXT/UTF8
Идентификатор кодека/Информация : UTF-8 Plain Text
Продолжительность : 58 м. 20 с.
Битрейт : 63 бит/сек
ElementCount : 1016
Размер потока : 27,0 Кбайт (0%)
Заголовок : SDH
Язык : English
Default : Нет
Forced : Нет

Текст #4
Идентификатор : 7
Формат : UTF-8
Идентификатор кодека : S_TEXT/UTF8
Идентификатор кодека/Информация : UTF-8 Plain Text
Продолжительность : 58 м. 19 с.
Битрейт : 91 бит/сек
ElementCount : 747
Размер потока : 38,9 Кбайт (0%)
Язык : Arabic
Default : Нет
Forced : Нет

Текст #5
Идентификатор : 8
Формат : UTF-8
Идентификатор кодека : S_TEXT/UTF8
Идентификатор кодека/Информация : UTF-8 Plain Text
Продолжительность : 57 м. 56 с.
Битрейт : 49 бит/сек
ElementCount : 740
Размер потока : 21,2 Кбайт (0%)
Язык : Danish
Default : Нет
Forced : Нет

Текст #6
Идентификатор : 9
Формат : UTF-8
Идентификатор кодека : S_TEXT/UTF8
Идентификатор кодека/Информация : UTF-8 Plain Text
Продолжительность : 57 м. 57 с.
Битрейт : 56 бит/сек
ElementCount : 601
Размер потока : 23,8 Кбайт (0%)
Язык : German
Default : Нет
Forced : Нет

Текст #7
Идентификатор : 10
Формат : UTF-8
Идентификатор кодека : S_TEXT/UTF8
Идентификатор кодека/Информация : UTF-8 Plain Text
Продолжительность : 58 м. 19 с.
Битрейт : 58 бит/сек
ElementCount : 742
Размер потока : 25,0 Кбайт (0%)
Заголовок : Latinoamérica
Язык : Spanish
Default : Нет
Forced : Нет

Текст #8
Идентификатор : 11
Формат : UTF-8
Идентификатор кодека : S_TEXT/UTF8
Идентификатор кодека/Информация : UTF-8 Plain Text
Продолжительность : 57 м. 56 с.
Битрейт : 57 бит/сек
ElementCount : 742
Размер потока : 24,3 Кбайт (0%)
Заголовок : España
Язык : Spanish
Default : Нет
Forced : Нет

Текст #9
Идентификатор : 12
Формат : UTF-8
Идентификатор кодека : S_TEXT/UTF8
Идентификатор кодека/Информация : UTF-8 Plain Text
Продолжительность : 57 м. 56 с.
Битрейт : 51 бит/сек
ElementCount : 743
Размер потока : 22,0 Кбайт (0%)
Язык : Finnish
Default : Нет
Forced : Нет

Текст #10
Идентификатор : 13
Формат : UTF-8
Идентификатор кодека : S_TEXT/UTF8
Идентификатор кодека/Информация : UTF-8 Plain Text
Продолжительность : 57 м. 56 с.
Битрейт : 57 бит/сек
ElementCount : 741
Размер потока : 24,5 Кбайт (0%)
Язык : French
Default : Нет
Forced : Нет

Текст #11
Идентификатор : 14
Формат : UTF-8
Идентификатор кодека : S_TEXT/UTF8
Идентификатор кодека/Информация : UTF-8 Plain Text
Продолжительность : 58 м. 19 с.
Битрейт : 89 бит/сек
ElementCount : 747
Размер потока : 38,0 Кбайт (0%)
Язык : Hebrew
Default : Нет
Forced : Нет

Текст #12
Идентификатор : 15
Формат : UTF-8
Идентификатор кодека : S_TEXT/UTF8
Идентификатор кодека/Информация : UTF-8 Plain Text
Продолжительность : 58 м. 19 с.
Битрейт : 152 бит/сек
ElementCount : 747
Размер потока : 65,2 Кбайт (0%)
Язык : Hindi
Default : Нет
Forced : Нет

Текст #13
Идентификатор : 16
Формат : UTF-8
Идентификатор кодека : S_TEXT/UTF8
Идентификатор кодека/Информация : UTF-8 Plain Text
Продолжительность : 57 м. 56 с.
Битрейт : 49 бит/сек
ElementCount : 741
Размер потока : 21,0 Кбайт (0%)
Язык : Indonesian
Default : Нет
Forced : Нет

Текст #14
Идентификатор : 17
Формат : UTF-8
Идентификатор кодека : S_TEXT/UTF8
Идентификатор кодека/Информация : UTF-8 Plain Text
Продолжительность : 57 м. 56 с.
Битрейт : 61 бит/сек
ElementCount : 741
Размер потока : 25,9 Кбайт (0%)
Язык : Italian
Default : Нет
Forced : Нет

Текст #15
Идентификатор : 18
Формат : UTF-8
Идентификатор кодека : S_TEXT/UTF8
Идентификатор кодека/Информация : UTF-8 Plain Text
Продолжительность : 58 м. 19 с.
Битрейт : 62 бит/сек
ElementCount : 747
Размер потока : 26,7 Кбайт (0%)
Язык : Korean
Default : Нет
Forced : Нет

Текст #16
Идентификатор : 19
Формат : UTF-8
Идентификатор кодека : S_TEXT/UTF8
Идентификатор кодека/Информация : UTF-8 Plain Text
Продолжительность : 58 м. 19 с.
Битрейт : 56 бит/сек
ElementCount : 745
Размер потока : 24,0 Кбайт (0%)
Язык : Norwegian Bokmal
Default : Нет
Forced : Нет

Текст #17
Идентификатор : 20
Формат : UTF-8
Идентификатор кодека : S_TEXT/UTF8
Идентификатор кодека/Информация : UTF-8 Plain Text
Продолжительность : 57 м. 56 с.
Битрейт : 53 бит/сек
ElementCount : 742
Размер потока : 22,8 Кбайт (0%)
Язык : Dutch
Default : Нет
Forced : Нет

Текст #18
Идентификатор : 21
Формат : UTF-8
Идентификатор кодека : S_TEXT/UTF8
Идентификатор кодека/Информация : UTF-8 Plain Text
Продолжительность : 57 м. 56 с.
Битрейт : 53 бит/сек
ElementCount : 744
Размер потока : 22,5 Кбайт (0%)
Язык : Polish
Default : Нет
Forced : Нет

Текст #19
Идентификатор : 22
Формат : UTF-8
Идентификатор кодека : S_TEXT/UTF8
Идентификатор кодека/Информация : UTF-8 Plain Text
Продолжительность : 57 м. 56 с.
Битрейт : 54 бит/сек
ElementCount : 741
Размер потока : 23,2 Кбайт (0%)
Язык : Portuguese
Default : Нет
Forced : Нет

Текст #20
Идентификатор : 23
Формат : UTF-8
Идентификатор кодека : S_TEXT/UTF8
Идентификатор кодека/Информация : UTF-8 Plain Text
Продолжительность : 58 м. 19 с.
Битрейт : 88 бит/сек
ElementCount : 747
Размер потока : 37,9 Кбайт (0%)
Язык : Russian
Default : Нет
Forced : Нет

Текст #21
Идентификатор : 24
Формат : UTF-8
Идентификатор кодека : S_TEXT/UTF8
Идентификатор кодека/Информация : UTF-8 Plain Text
Продолжительность : 57 м. 56 с.
Битрейт : 58 бит/сек
ElementCount : 740
Размер потока : 24,8 Кбайт (0%)
Язык : Swedish
Default : Нет
Forced : Нет

Текст #22
Идентификатор : 25
Формат : UTF-8
Идентификатор кодека : S_TEXT/UTF8
Идентификатор кодека/Информация : UTF-8 Plain Text
Продолжительность : 58 м. 19 с.
Битрейт : 166 бит/сек
ElementCount : 747
Размер потока : 71,0 Кбайт (0%)
Язык : Tamil
Default : Нет
Forced : Нет

Текст #23
Идентификатор : 26
Формат : UTF-8
Идентификатор кодека : S_TEXT/UTF8
Идентификатор кодека/Информация : UTF-8 Plain Text
Продолжительность : 58 м. 19 с.
Битрейт : 143 бит/сек
ElementCount : 747
Размер потока : 61,5 Кбайт (0%)
Язык : Telugu
Default : Нет
Forced : Нет

Текст #24
Идентификатор : 27
Формат : UTF-8
Идентификатор кодека : S_TEXT/UTF8
Идентификатор кодека/Информация : UTF-8 Plain Text
Продолжительность : 58 м. 19 с.
Битрейт : 149 бит/сек
ElementCount : 747
Размер потока : 63,8 Кбайт (0%)
Язык : Thai
Default : Нет
Forced : Нет

Текст #25
Идентификатор : 28
Формат : UTF-8
Идентификатор кодека : S_TEXT/UTF8
Идентификатор кодека/Информация : UTF-8 Plain Text
Продолжительность : 58 м. 19 с.
Битрейт : 52 бит/сек
ElementCount : 745
Размер потока : 22,3 Кбайт (0%)
Язык : Turkish
Default : Нет
Forced : Нет

Текст #26
Идентификатор : 29
Формат : UTF-8
Идентификатор кодека : S_TEXT/UTF8
Идентификатор кодека/Информация : UTF-8 Plain Text
Продолжительность : 58 м. 19 с.
Битрейт : 54 бит/сек
ElementCount : 747
Размер потока : 23,2 Кбайт (0%)
Заголовок : 中文(简体)
Язык : Chinese
Default : Нет
Forced : Нет

Текст #27
Идентификатор : 30
Формат : UTF-8
Идентификатор кодека : S_TEXT/UTF8
Идентификатор кодека/Информация : UTF-8 Plain Text
Продолжительность : 58 м. 19 с.
Битрейт : 48 бит/сек
ElementCount : 747
Размер потока : 20,5 Кбайт (0%)
Заголовок : 中文(繁體)
Язык : Chinese
Default : Нет
Forced : Нет

Меню
00:00:00.000 : en:Amazon Original
00:00:05.000 : en:Title Sequence
00:00:18.000 : en:Opening Credits
00:00:29.000 : en:The history of The Great War
00:01:49.000 : en:Fleeing from Tirnanoc
00:08:00.000 : en:Philo works on a case in The Burgue
00:14:29.000 : en:The wreckage from the ship
00:15:22.000 : en:Political leanings in The Burgue
00:19:02.000 : en:Philo chases down a lead
00:20:45.000 : en:Vignette's fate after the shipwreck
00:26:00.000 : en:Philo attends a protest meeting
00:28:46.000 : en:Philo experiences favoritism
00:31:48.000 : en:Running errands leads to an old friend
00:37:55.000 : en:Philo gets reprimanded
00:40:26.000 : en:Vignette vows revenge
00:41:05.000 : en:Greeting the new neighbors
00:42:51.000 : en:Jonah has a little fun
00:45:22.000 : en:Looking for a fish in the sea
00:50:34.000 : en:Vignette comes for Philo
00:57:04.000 : en:The darkness is coming...
00:58:33.000 : en:End Credits

Раздача ведётся путём добавления новых серий; при каждом добавлении создаётся новый торрент.
Чтобы начать докачку новой серии, пользователям необходимо сделать следующее:
1. остановить скачивание,
2. удалить старый торрент у себя из клиента (старые серии удалять не надо),
3. скачать новый торрент и запустить его у себя в клиенте вместо старого, при этом указать клиенту путь в старую папку, куда и должно происходить скачивание новых серий.

Ваш клиент при этом должен произвести хеширование (проверку) старой папки (если не производит сам - помогите ему сделать это), и будет докачивать только те серии которых у вас ещё нет. Старые серии при этом не удаляются, а продолжают раздаваться!

Eсли вы уже удалили старые серии, то предотвратить повторную закачку старых серий можно, отжав галочку в соответствующих местах при запуске нового торрента. По возможности, желательно не удалять старые серии как можно дольше, чтобы релизёр не столько продолжал раздавать старые серии, а смог сконцентрироваться на новых.

Совет для тех, кто не хочет ждать перехеширования:
Создайте ещё одну папку рядом с папкой сериала (рядом, а не в ней!!!). Каждую новую серию после удачной загрузки копируйте в новую папку так чтобы ваша основная папка всегда была пуста. Когда ваш новый торрент предложит вам закачать все файлы, выберете только последнюю. Для сидирования же укажите адрес новой папки.

Как закачать отдельный файл из торрента или докачать ранее пропущенные файлы торрента!
piratbit.cc



Скачать Карнивал Роу через торрент http://i90.fastpic.ru/big/2019/0902/2f/c25186e566b889f26bf30f28a998d92f.png Скачать фильм Карнивал Роу через торрент бесплантно в хорошем качестве Описание:Действие сериала разворачивается в неовикторианском мегаполисе, где укрываются мифические существа, стекаясь туда из своих ... 10 10 3
Торрент: Зарегистрирован [2019-09-14 04:30] · скачан: 10 раз
Статус: √ проверено
Размер: 10.77 GB
Как cкачать? Как скачать Карнивал Роу через торрент | qTorrent

% Раздел Тема Автор DL S | L
Зарубежные сериалы [ 5.3 GB ] Карнивал Роу / Carnival Row / Сезон: 1 / Серии: 1-4 из 8 [2019 WEB-DL 720p] MVO [Lostfilm] bober100 Скачать
14 | 1
Зарубежные сериалы [ 45.52 GB ] Карнивал Роу / Carnival Row / Сезон: 1 / Серии: 1-4 из 8 [2019 UHD WEB-DL 2160p] [SDR] 3xMVO bober100 Скачать
3 | 1


>> Регистрируемся здесь <<






Отзывы и комментарии о схеме читаем и пишем здесь: ---> Отзывы и комментарии о схеме

Новые благодарочки в телеграм довольных пользователей:
скриншот   скриншот   скриншот   скриншот   скриншот
    Дорогой пользователь! Огромная просьба, поблагодарите релизера, оцените раздачу и оставьте свои комментарий, если Вы скачали Карнивал Роу через торрент бесплатно! Внесите свою лепту в развитие PiratBit!
    Комментировать посты могут только пользователи прошедшие не сложную регистрацию
    Показать сообщения:    

    Карнивал Роу через торрент
    Скачать бесплатно Карнивал Роу
    Карнивал Роу скачать торрент
    Карнивал Роу смотреть онлайн
    Cкачать фильм Карнивал Роу бесплатно
    Карнивал Роу скачать торрент в хорошем качестве
    Карнивал Роу смотреть онлайн бесплатно в хорошем качестве


    Вы не можете начинать темы
    Вы не можете отвечать на сообщения
    Вы не можете редактировать свои сообщения
    Вы не можете удалять свои сообщения
    Вы не можете голосовать в опросах
    Вы не можете прикреплять файлы к сообщениям
    Вы можете скачивать файлы