iTunes

1+1

iTunes

мы

iTunes

1

iTunes

Чернобыль

iTunes

Ральф против интернета

Лицензия

ПШазам

Лицензия

Игра престолов

Лицензия

30
pack

ВАЖНО

!!Акция!!

Alien_RageХит недели

RePack

Resident Evil 21

ИГРА 18+

pack

RePack

Metro:Exodus

!!Акция!!

Alien_Rage

RePack

fifa19

RePack

Assassins Creed: Odyssey

RePack

NEED FOR SPEED™ PAYBACK

3 сезон

9 сезон

Бесстыжие 9 сезон

Все сериалы

все сериалы на PB.wtf

RePack

FAR CRY 5
Ребята, катастрофически не хватает 7730р. для оплаты серверов за АВГУСТ (всвязи с блокировками трафик упал в 3 раза), 1-2р., выручайте.
  

Годзилла 2: Король монстров / Godzilla: King of the Monsters (Майкл Догерти) [2019, фантастика, фэнтези, боевик, приключения, HDRip | КПК от R.G.Resident] DUB [iTunes] piratbit.cc

Годзилла 2: Король монстров через торрент piratbit.cc

Раздают: 1 [ 121 KB/s ]
Размер: 466 MB | Добавлен: 12 д. назад | Торрент скачан:19 раз
Скачать  

07-09-2019 17:39 Годзилла 2: Король монстров Скачать торрент  

Годзилла 2: Король монстров / Godzilla: King of the MonstersСлоган: «Let them fight»

Год выпуска: 2019
Страна: США, Япония
Жанр: фантастика, фэнтези, боевик, приключения

Продолжительность: 02:11:42
Перевод: Профессиональный (дублированный) | iTunes
Субтитры: Нет

Режиссёр: Майкл Догерти
В ролях: Кайл Чандлер, Вера Фармига, Милли Бобби Браун, Кэн Ватанабэ, Цзыи Чжан, Брэдли Уитфорд, Салли Хокинс, Чарльз Дэнс, Томас Миддлдитч, Аиша Хайндс, О`Ши Джексон мл., Дэвид Стрэтэйрн, Энтони Рамос, Элизабет Ладлоу, Джонатан Ховард, Си Си Эйч Паундер, Джо Мортон, Тайлер Крумли, Келли Гарнер

Описание: История рассказывает о героических усилиях криптозоологического агентства «Монарх» по сдерживанию гигантских монстров. В этот раз против могучего Годзиллы выступают Мотра, Родан и ультимативный кайдзю — трёхголовый монстр Кинг Гидора. Когда эти древние суперхищники, со временем превратившиеся в полузабытые мифы, восстают снова, чтобы сойтись в схватке, человечеству остаётся отойти в сторонку и постараться не погибнуть.



Релиз от: R.G.Resident

Качество: HDRip
Формат: MP4
Видео кодек: AVC
Аудио кодек: AAC
Видео: 480x200, 23,976 fps, 360 kbps
Аудио: 2 ch, 48,0 kHz, 128 Kbps
Общее
Полное имя : E:\Годзилла 2_Король монстров.mp4
Формат : MPEG-4
Профиль формата : Base Media
Идентификатор кодека : isom (isom/avc1)
Размер файла : 466 Мбайт
Продолжительность : 2 ч. 11 м.
Режим общего битрейта : Переменный
Общий поток : 494 Кбит/сек
Дата кодирования : UTC 2019-09-06 05:07:12
Дата пометки : UTC 2019-09-06 05:07:12

Видео
Идентификатор : 1
Формат : AVC
Формат/Информация : Advanced Video Codec
Профиль формата : High@L2
Настройки формата : CABAC / 8 Ref Frames
Параметр CABAC формата : Да
Параметр RefFrames формата : 8 кадров
Идентификатор кодека : avc1
Идентификатор кодека/Информация : Advanced Video Coding
Продолжительность : 2 ч. 11 м.
Битрейт : 360 Кбит/сек
Максимальный битрейт : 1431 Кбит/сек
Ширина : 480 пикселей
Высота : 200 пикселей
Соотношение сторон : 2,40:1
Режим частоты кадров : Постоянный
Частота кадров : 23,976 (24000/1001) кадра/сек
Цветовое пространство : YUV
Субдискретизация насыщенности : 4:2:0
Битовая глубина : 8 бит
Тип развёртки : Прогрессивная
Бит/(Пиксели*Кадры) : 0.156
Размер потока : 339 Мбайт (73%)
Библиотека кодирования : x264 core 65 r999kMod cc51047
Настройки программы : cabac=1 / ref=8 / deblock=1:0:0 / analyse=0x3:0x133 / me=umh / subme=8 / psy_rd=1.0:0.0 / mixed_ref=1 / me_range=24 / chroma_me=1 / trellis=1 / 8x8dct=1 / cqm=0 / deadzone=21,11 / chroma_qp_offset=-2 / threads=4 / thread_queue=4 / nr=0 / decimate=1 / mbaff=0 / bframes=8 / b_pyramid=0 / b_adapt=1 / b_bias=0 / direct=3 / wpredb=1 / keyint=250 / keyint_min=25 / scenecut=40(pre) / rc=2pass / bitrate=360 / ratetol=1.0 / qcomp=0.60 / qpmin=10 / qpmax=51 / qpstep=4 / cplxblur=20.0 / qblur=0.5 / ip_ratio=1.40 / pb_ratio=1.30 / aq=1:1.00
Дата кодирования : UTC 2019-09-06 05:07:12
Дата пометки : UTC 2019-09-06 05:07:24
Codec configuration box : avcC

Аудио
Идентификатор : 2
Формат : AAC LC
Формат/Информация : Advanced Audio Codec Low Complexity
Идентификатор кодека : mp4a-40-2
Продолжительность : 2 ч. 11 м.
Вид битрейта : Переменный
Битрейт : 132 Кбит/сек
Максимальный битрейт : 156 Кбит/сек
Каналы : 2 канала
ChannelLayout : L R
Частота : 48,0 КГц
Частота кадров : 46,875 кадров/сек (1024 SPF)
Метод сжатия : С потерями
Размер потока : 124 Мбайт (27%)
Дата кодирования : UTC 2019-09-06 05:07:22
Дата пометки : UTC 2019-09-06 05:07:24
piratbit.cc



Скачать Годзилла 2: Король монстров через торрент https://i90.fastpic.ru/big/2019/0903/44/002748c53fdb7c883eb6c62c268b5e44.jpg Скачать фильм Годзилла 2: Король монстров через торрент бесплантно в хорошем качестве Описание: История рассказывает о героических усилиях криптозоологического агентства «Монарх» по сдерживанию гигантских монстров. В этот раз ... 10 10 2
Info! Золотая раздача, скачанное не засчитывается.
Торрент: Зарегистрирован [2019-09-07 17:39] · скачан: 19 раз
Статус: √ проверено
Размер: 466 MB
Как cкачать? Как скачать Годзилла 2: Король монстров через торрент | qTorrent

% Раздел Тема Автор DL S | L
Фильмы (Blu-ray, BD-Remux, HDDVD) [ 45.16 GB ] Годзилла 2: Король монстров / Godzilla: King of the Monsters [2019 Blu-ray EUR 1080p] DUB [] bober100 Скачать
3 | 0
Ultra HD (UHD: 2K, 4K, 8K) — видео сверхвысокой чёткости [ 64.08 GB ] Годзилла 2: Король монстров / Godzilla: King of the Monsters [2019 UHD Blu-ray 2160p] [Dolby Vision] DUB [] bober100 Скачать
1 | 1
Ultra HD (UHD: 2K, 4K, 8K) — видео сверхвысокой чёткости [ 56.65 GB ] Годзилла 2: Король монстров / Godzilla: King of the Monsters [2019 UHD BDRemux 2160p] DUB [] +MVO [HDRezka Studio] bober100 Скачать
2 | 0
3D Фильмы [ 14.06 GB ] Годзилла 2: Король монстров 3Д / Godzilla: King of the Monsters 3D [2019 BDRip 1080p] [Half OverUnder] DUB [] bober100 Скачать
3 | 0
Фильмы [HD 720p, 1080p] (Хороший звук DUB, MVO) [ 10.61 GB ] Годзилла 2: Король монстров / Godzilla: King of the Monsters [2019 BDRip-HEVC 1080p ] DUB [] bober100 Скачать
10 | 0
Ultra HD (UHD: 2K, 4K, 8K) — видео сверхвысокой чёткости [ 38.89 GB ] Годзилла 2: Король монстров / Godzilla: King of the Monsters [2019 UHD BDRip 2160p] [SDR] DUB [] +MVO [HDRezka Studio] bober100 Скачать
2 | 0
Фильмы 2019 [DVDrip, WEB-DLRip, HDrip] (DUB, MVO) [ 2.67 GB ] Годзилла 2: Король монстров / Godzilla: King of the Monsters [2019 BDRip-AVC] DUB [] +MVO [HDRezka Studio] bober100 Скачать
11 | 0


>> Регистрируемся здесь <<






Отзывы и комментарии о схеме читаем и пишем здесь: ---> Отзывы и комментарии о схеме

Новые благодарочки в телеграм довольных пользователей:
скриншот   скриншот   скриншот   скриншот   скриншот

08-09-2019 07:02 Годзилла 2: Король монстров Скачать торрент  

Топик был перенесен из форума R.G.Resident - Сериалы, Видео в форум R.G. Resident & PiratVoice - Фильмы, Видео


bober100piratbit.cc



    Дорогой пользователь! Огромная просьба, поблагодарите релизера, оцените раздачу и оставьте свои комментарий, если Вы скачали Годзилла 2: Король монстров через торрент бесплатно! Внесите свою лепту в развитие PiratBit!
    Комментировать посты могут только пользователи прошедшие не сложную регистрацию
    Показать сообщения:    

    Годзилла 2: Король монстров через торрент
    Скачать бесплатно Годзилла 2: Король монстров
    Годзилла 2: Король монстров скачать торрент
    Годзилла 2: Король монстров смотреть онлайн
    Cкачать фильм Годзилла 2: Король монстров бесплатно
    Годзилла 2: Король монстров скачать торрент в хорошем качестве
    Годзилла 2: Король монстров смотреть онлайн бесплатно в хорошем качестве


    Вы не можете начинать темы
    Вы не можете отвечать на сообщения
    Вы не можете редактировать свои сообщения
    Вы не можете удалять свои сообщения
    Вы не можете голосовать в опросах
    Вы не можете прикреплять файлы к сообщениям
    Вы можете скачивать файлы