iTunes

1+1

iTunes

мы

iTunes

1

iTunes

Чернобыль

iTunes

Ральф против интернета

Лицензия

ПШазам

Лицензия

Игра престолов

Лицензия

30
pack

ВАЖНО

!!Акция!!

Alien_RageХит недели

RePack

Resident Evil 21

ИГРА 18+

pack

RePack

Metro:Exodus

!!Акция!!

Alien_Rage

RePack

fifa19

RePack

Assassins Creed: Odyssey

RePack

NEED FOR SPEED™ PAYBACK

3 сезон

9 сезон

Бесстыжие 9 сезон

Все сериалы

все сериалы на PB.wtf

RePack

FAR CRY 5
Ребята, катастрофически не хватает 7730р. для оплаты серверов за АВГУСТ (всвязи с блокировками трафик упал в 3 раза), 1-2р., выручайте.
  

Послезавтра / The Day After Tomorrow (Роланд Эммерих) [2004, фантастика, триллер, драма, приключения, BDRip-HEVC 1080p, (10bit)] DUB (rus,ukr) [Лицензия] piratbit.cc

Послезавтра через торрент piratbit.cc

Раздают: 5 [ 0 KB/s ]
Размер: 6.53 GB | Добавлен: 10 д. назад | Торрент скачан:108 раз
Скачать  

08-09-2019 08:30 Послезавтра Скачать торрент  

Послезавтра / The Day After Tomorrow
Год выпуска: 2004
Страна: США
Жанр: фантастика, триллер, драма, приключения
Продолжительность: 02:03:41
Перевод: Дублированный | Лицензия
Субтитры: русские, английские

Режиссер: Роланд Эммерих

rating

В ролях: Дэннис Куэйд, Джейк Джилленхол, Эмми Россам, Дэш Майок, Джей О. Сандерс, Села Уорд, Остин Николс, Эрджей Смит, Тэмлин Томита, Саша Ройз

Описание: Земля уверенно движется навстречу глобальной экологической катастрофе: в одной части света все живое погибает от засухи, в другой — разбушевавшаяся водная стихия сносит города.
Близость катастрофы вынуждает ученого-климатолога, пытающегося найти способ остановить глобальное потепление, отправиться на поиски пропавшего сына в Нью-Йорк, в котором наступил новый ледниковый период…

Качество: BDRip-HEVC 1080p
Формат: MKV

Видео: HEVC/H.265, 1920x816, ~5957 Kbps, 10bit
Аудио#1: AC3, 6 ch, 640 Kbps - Русский, дублированный
Аудио#2: AC3, 2 ch, 320 Kbps - Украинский, дублированный
Аудио#3: AC3, 6 ch, 640 Kbps - Английский
скриншот  скриншот  скриншот  скриншот  

x265 [info]: frame I: Avg QP:17.26 kb/s
x265 [info]: frame P: Avg QP:18.59 kb/s
x265 [info]: frame B: Avg QP:20.63 kb/s
x265 [info]: consecutive B-frames: 10.1% 3.5% 5.1% 21.2% 9.2% 18.7% 6.2% 8.1% 4.2% 3.2% 2.1% 2.7% 1.4% 1.1% 1.0% 1.0% 1.3%

Avg QP:20.27

Общее
Уникальный идентификатор : 313934667999123234090208705364356922342 (0xEC2D9E260C7A21B9ECCEF0AD1B9E7BE6)
Полное имя : H:InstallUploadThe Day After Tomorrow (2004) BDRip 1080p [HEVC].mkv
Формат : Matroska
Версия формата : Version 4
Размер файла : 6,53 Гбайт
Продолжительность : 2 ч. 3 м.
Общий поток : 7558 Кбит/сек
Название фильма : The Day After Tomorrow (2004)
Дата кодирования : UTC 2019-09-07 14:54:31
Программа кодирования : mkvmerge v37.0.0 ('Leave It') 64-bit
Библиотека кодирования : libebml v1.3.9 + libmatroska v1.5.2
Обложка : Yes
Attachments : xlog.txt / cover.jpg

Видео
Идентификатор : 1
Формат : HEVC
Формат/Информация : High Efficiency Video Coding
Профиль формата : Main 10@L4.1@High
Идентификатор кодека : V_MPEGH/ISO/HEVC
Продолжительность : 2 ч. 3 м.
Битрейт : 5957 Кбит/сек
Ширина : 1920 пикселей
Высота : 816 пикселей
Соотношение сторон : 2,35:1
Режим частоты кадров : Постоянный
Частота кадров : 23,976 (23976/1000) кадра/сек
Частота кадров в оригинале : 23,976 (24000/1001) кадра/сек
Цветовое пространство : YUV
Субдискретизация насыщенности : 4:2:0
Битовая глубина : 10 бит
Бит/(Пиксели*Кадры) : 0.159
Размер потока : 5,15 Гбайт (79%)
Библиотека кодирования : x265 3.0_Au+4-dcbec33bfb0f:[Windows][MSVC 1916][64 bit] 10bit
Настройки программы : cpuid=1111039 / frame-threads=3 / numa-pools=12 / wpp / no-pmode / no-pme / no-psnr / no-ssim / log-level=2 / input-csp=1 / input-res=1920x816 / interlace=0 / total-frames=166268 / level-idc=41 / high-tier=1 / uhd-bd=0 / ref=5 / no-allow-non-conformance / no-repeat-headers / annexb / no-aud / no-hrd / info / hash=0 / no-temporal-layers / open-gop / min-keyint=23 / keyint=240 / gop-lookahead=0 / bframes=16 / b-adapt=2 / b-pyramid / bframe-bias=0 / rc-lookahead=60 / lookahead-slices=4 / scenecut=40 / radl=0 / no-splice / no-intra-refresh / ctu=32 / min-cu-size=8 / rect / amp / max-tu-size=32 / tu-inter-depth=4 / tu-intra-depth=4 / limit-tu=1 / rdoq-level=2 / dynamic-rd=0.00 / no-ssim-rd / signhide / no-tskip / nr-intra=0 / nr-inter=0 / no-constrained-intra / no-strong-intra-smoothing / max-merge=4 / limit-refs=2 / limit-modes / me=3 / subme=7 / merange=57 / temporal-mvp / weightp / weightb / no-analyze-src-pics / deblock=-3:-3 / no-sao / no-sao-non-deblock / rd=6 / no-early-skip / no-rskip / no-fast-intra / no-tskip-fast / no-cu-lossless / no-b-intra / no-splitrd-skip / rdpenalty=0 / psy-rd=2.00 / psy-rdoq=1.00 / no-rd-refine / no-lossless / cbqpoffs=0 / crqpoffs=0 / rc=crf / crf=21.0 / qcomp=0.65 / qpstep=4 / stats-write=0 / stats-read=0 / vbv-maxrate=50000 / vbv-bufsize=50000 / vbv-init=0.9 / crf-max=0.0 / crf-min=0.0 / ipratio=1.40 / pbratio=1.30 / aq-mode=1 / aq-strength=1.00 / no-cutree / zone-count=0 / no-strict-cbr / qg-size=32 / no-rc-grain / qpmax=69 / qpmin=0 / no-const-vbv / sar=1 / overscan=0 / videoformat=5 / range=0 / colorprim=2 / transfer=2 / colormatrix=2 / chromaloc=0 / display-window=0 / max-cll=0,0 / min-luma=0 / max-luma=1023 / log2-max-poc-lsb=8 / vui-timing-info / vui-hrd-info / slices=1 / no-opt-qp-pps / no-opt-ref-list-length-pps / no-multi-pass-opt-rps / scenecut-bias=0.05 / no-opt-cu-delta-qp / no-aq-motion / no-hdr / no-hdr-opt / no-dhdr10-opt / no-idr-recovery-sei / analysis-reuse-level=5 / scale-factor=0 / refine-intra=0 / refine-inter=0 / refine-mv=0 / refine-ctu-distortion=0 / no-limit-sao / ctu-info=0 / no-lowpass-dct / refine-analysis-type=0 / copy-pic=1 / max-ausize-factor=1.0 / no-dynamic-refine / no-single-sei / no-hevc-aq / qp-adaptation-range=1.00
Default : Да
Forced : Нет

Аудио #1
Идентификатор : 2
Формат : AC-3
Формат/Информация : Audio Coding 3
Коммерческое название : Dolby Digital
Идентификатор кодека : A_AC3
Продолжительность : 2 ч. 3 м.
Вид битрейта : Постоянный
Битрейт : 640 Кбит/сек
Каналы : 6 каналов
Channel layout : L R C LFE Ls Rs
Частота : 48,0 КГц
Частота кадров : 31,250 кадров/сек (1536 SPF)
Битовая глубина : 16 бит
Метод сжатия : С потерями
Размер потока : 566 Мбайт (8%)
Заголовок : Дубляж
Язык : Russian
ServiceKind/ : Complete Main
Default : Да
Forced : Нет

Аудио #2
Идентификатор : 3
Формат : AC-3
Формат/Информация : Audio Coding 3
Коммерческое название : Dolby Digital
Идентификатор кодека : A_AC3
Продолжительность : 2 ч. 2 м.
Вид битрейта : Постоянный
Битрейт : 320 Кбит/сек
Каналы : 2 канала
Channel layout : L R
Частота : 48,0 КГц
Частота кадров : 31,250 кадров/сек (1536 SPF)
Битовая глубина : 16 бит
Метод сжатия : С потерями
Размер потока : 281 Мбайт (4%)
Заголовок : Дублированный
Язык : Ukrainian
ServiceKind/ : Complete Main
Default : Нет
Forced : Нет

Аудио #3
Идентификатор : 4
Формат : AC-3
Формат/Информация : Audio Coding 3
Коммерческое название : Dolby Digital
Идентификатор кодека : A_AC3
Продолжительность : 2 ч. 3 м.
Вид битрейта : Постоянный
Битрейт : 640 Кбит/сек
Каналы : 6 каналов
Channel layout : L R C LFE Ls Rs
Частота : 48,0 КГц
Частота кадров : 31,250 кадров/сек (1536 SPF)
Битовая глубина : 16 бит
Метод сжатия : С потерями
Размер потока : 566 Мбайт (8%)
Заголовок : Оригинал
Язык : English
ServiceKind/ : Complete Main
Default : Нет
Forced : Нет

Текст #1
Идентификатор : 5
Формат : UTF-8
Идентификатор кодека : S_TEXT/UTF8
Идентификатор кодека/Информация : UTF-8 Plain Text
Продолжительность : 1 ч. 51 м.
Битрейт : 97 бит/сек
ElementCount : 1161
Размер потока : 80,3 Кбайт (0%)
Язык : Russian
Default : Нет
Forced : Нет

Текст #2
Идентификатор : 6
Формат : UTF-8
Идентификатор кодека : S_TEXT/UTF8
Идентификатор кодека/Информация : UTF-8 Plain Text
Продолжительность : 1 ч. 51 м.
Битрейт : 53 бит/сек
ElementCount : 1158
Размер потока : 43,8 Кбайт (0%)
Язык : English
Default : Нет
Forced : Нет

Меню
00:00:00.000 : :Chapter 01
00:05:00.000 : :Chapter 02
00:10:00.000 : :Chapter 03
00:15:00.000 : :Chapter 04
00:20:00.000 : :Chapter 05
00:25:00.000 : :Chapter 06
00:30:00.000 : :Chapter 07
00:35:00.000 : :Chapter 08
00:40:00.000 : :Chapter 09
00:45:00.000 : :Chapter 10
00:50:00.000 : :Chapter 11
00:55:00.000 : :Chapter 12
01:00:00.000 : :Chapter 13
01:05:00.000 : :Chapter 14
01:10:00.000 : :Chapter 15
01:15:00.000 : :Chapter 16
01:20:00.000 : :Chapter 17
01:25:00.000 : :Chapter 18
01:30:00.000 : :Chapter 19
01:35:00.000 : :Chapter 20
01:40:00.000 : :Chapter 21
01:45:00.000 : :Chapter 22
01:50:00.000 : :Chapter 23
01:55:00.000 : :Chapter 24
02:00:00.000 : :Chapter 25

piratbit.cc



Скачать Послезавтра через торрент https://d.radikal.ru/d41/1903/e2/d56502092e04.png Скачать фильм Послезавтра через торрент бесплантно в хорошем качестве Описание: Земля уверенно движется навстречу глобальной экологической катастрофе: в одной части света все живое погибает от засухи, в другой ... 10 10 8
Торрент: Зарегистрирован [2019-09-08 08:30] · скачан: 108 раз
Статус: √ проверено
Размер: 6.53 GB
Как cкачать? Как скачать Послезавтра через торрент | qTorrent

% Раздел Тема Автор DL S | L
Фильмы 2001-2005 [ 3.34 GB ] Послезавтра / The Day After Tomorrow [2004 WEB-DLRip] [Open Matte] + [DVO] + 2x[AVO] killermax2013 Скачать
1 | 0
Фильмы [HD 720p, 1080p] (Хороший звук DUB, MVO) [ 20.09 GB ] Послезавтра / The Day After Tomorrow [2004 BDRip 1080p] 2xDub + 2хDVO + 2хAVO + Original Eng + Sub -Lexx- Скачать
1 | 0
Фильмы [HD 720p, 1080p] (Хороший звук DUB, MVO) [ 8.19 GB ] Послезавтра / The Day After Tomorrow [2005 BDRip 720p] DUB potroks Скачать
1 | 0
Фильмы (Blu-ray, BD-Remux, HDDVD) [ 41.08 GB ] Послезавтра / The Day After Tomorrow [2004 катастрофа BD-Remux ] Артронах Скачать
1 | 0
Фильмы [HD 720p, 1080p] (Хороший звук DUB, MVO) [ 7.76 GB ] Послезавтра / The Day After Tomorrow [2004 BDRip 1080p ] Бумер Скачать
1 | 0
Фильмы 2001-2005 [ 1.46 GB ] Послезавтра / The Day After Tomorrow [2004 катастрофа BDRip] DUB -=Cherry=- Скачать
1 | 0
Фильмы (DVD фильмы) [ 4.27 GB ] Послезавтра / The day after tomorrow [2004 DVD5 пиратка] Steptoorew Скачать
1 | 0


>> Регистрируемся здесь <<






Отзывы и комментарии о схеме читаем и пишем здесь: ---> Отзывы и комментарии о схеме

Новые благодарочки в телеграм довольных пользователей:
скриншот   скриншот   скриншот   скриншот   скриншот
    Дорогой пользователь! Огромная просьба, поблагодарите релизера, оцените раздачу и оставьте свои комментарий, если Вы скачали Послезавтра через торрент бесплатно! Внесите свою лепту в развитие PiratBit!
    Комментировать посты могут только пользователи прошедшие не сложную регистрацию
    Показать сообщения:    

    Послезавтра через торрент
    Скачать бесплатно Послезавтра
    Послезавтра скачать торрент
    Послезавтра смотреть онлайн
    Cкачать фильм Послезавтра бесплатно
    Послезавтра скачать торрент в хорошем качестве
    Послезавтра смотреть онлайн бесплатно в хорошем качестве


    Вы не можете начинать темы
    Вы не можете отвечать на сообщения
    Вы не можете редактировать свои сообщения
    Вы не можете удалять свои сообщения
    Вы не можете голосовать в опросах
    Вы не можете прикреплять файлы к сообщениям
    Вы можете скачивать файлы