iTunes

1+1

iTunes

мы

iTunes

1

iTunes

Чернобыль

iTunes

Ральф против интернета

Лицензия

ПШазам

Лицензия

Игра престолов

Лицензия

30
pack

ВАЖНО

!!Акция!!

Alien_RageХит недели

RePack

Resident Evil 21

ИГРА 18+

pack

RePack

Metro:Exodus

!!Акция!!

Alien_Rage

RePack

fifa19

RePack

Assassins Creed: Odyssey

RePack

NEED FOR SPEED™ PAYBACK

3 сезон

9 сезон

Бесстыжие 9 сезон

Все сериалы

все сериалы на PB.wtf

RePack

FAR CRY 5
Ребята, катастрофически не хватает 7730р. для оплаты серверов за АВГУСТ (всвязи с блокировками трафик упал в 3 раза), 1-2р., выручайте.
  

Мистер Мерседес / Mr. Mercedes / Сезон: 3 / Серии: 1- из 10 (Джек Бендер) [2019, Триллер, детектив, WEB-DL 720p] MVO [AlexFilm] piratbit.cc

Мистер Мерседес через торрент piratbit.cc

Раздают: 1 [ 258 KB/s ]
Размер: 1.65 GB | Добавлен: 1 д. 13 ч. назад | Торрент скачан:5 раз
Скачать  

14-09-2019 04:53 Мистер Мерседес Скачать торрент  

Мистер Мерседес / Mr. Mercedes Год выпуска: 2019
Страна: США
Жанр: Триллер, детектив
Продолжительность: ~00:50:00
Перевод: Профессиональное, многоголосое, закадровое | AlexFilm
Субтитры: нет

Режиссер: Джек Бендер

В ролях: Брендан Глисон, Джаррель Джером, Гарри Тредэвэй, Келли Линч, Эд Андерсон, Грант Лэйн

Описание: Отставной полицейский Билл Ходжес возвращается к работе, так как ему не дает покоя нераскрытое дело — жестокое убийство восьми человек. Брейди Хартфилд не может забыть пьянящее чувство, когда на угнанном «мерседесе» он врезался в группу ни в чем не повинных людей. Брейди не хочет останавливаться — он уже планирует новое преступление, на этот раз намного более масштабное. Биллу Ходжесу и его команде необходимо опередить его и спасти жизнь уже не десяткам, а сотням людей.

Сэмпл: http://sendfile.su/1516122
Внимание: сериал содержит ненормативную лексику.



Качество: WEB-DL 720p
Формат: MKV

Видео: 1280x720, 23,976 fps, MPEG-4 AVC ~3000 kbps avg, 0.136 bit/pixel
Аудио Rus: 48 kHz, AC3 Dolby Digital, 3/2 (L,C,R,l,r) + LFE ch, ~384.00 kbps
Аудио Eng: 48 kHz, AC3 Dolby Digital, 3/2 (L,C,R,l,r) + LFE ch, ~384.00 kbps


Реклама: аудио (два раза, в начале 10 и в конце 10 сек.)
Релиз:

Перевод: Алиса Голланова
Монтаж и сведение звука: Константин Федосеев
Роли озвучивали:

Екатерина Муравицкая
Нана Саркисян
Владимир Курдов
Константин Погодаев
Михаил Цареградский
Михаил Федосеев
Кирилл Патрино
Формат : Matroska
Версия формата : Version 4 / Version 2
Размер файла : 1,65 Гбайт
Продолжительность : 1 ч. 2 м.
Режим общего битрейта : Постоянный
Общий поток : 3775 Кбит/сек
Название фильма : Mr. Mercedes 3x01 @ AlexFilm
Дата кодирования : UTC 2019-09-13 19:49:15
Программа кодирования : mkvmerge v7.9.0 ('Birds') 64bit
Библиотека кодирования : libebml v1.3.1 + libmatroska v1.4.2

Видео
Идентификатор : 1
Формат : AVC
Формат/Информация : Advanced Video Codec
Профиль формата : High@L3.1
Параметр CABAC формата : Да
Параметр ReFrames формата : 4 кадра
Идентификатор кодека : V_MPEG4/ISO/AVC
Продолжительность : 1 ч. 2 м.
Вид битрейта : Постоянный
Битрейт : 3005 Кбит/сек
Номинальный битрейт : 6000 Кбит/сек
Ширина : 1280 пикселей
Высота : 720 пикселей
Соотношение сторон : 16:9
Режим частоты кадров : Постоянный
Частота кадров : 23,976 (24000/1001) кадра/сек
Цветовое пространство : YUV
Субдискретизация насыщенности : 4:2:0
Битовая глубина : 8 бит
Тип развёртки : Прогрессивная
Бит/(Пиксели*Кадры) : 0.136
Размер потока : 1,31 Гбайт (80%)
Default : Да
Forced : Нет
Цветовой диапазон : Limited
Основные цвета : BT.709
Характеристики трансфера : BT.709
Коэффициенты матрицы : BT.709

Аудио #1
Идентификатор : 2
Формат : AC-3
Формат/Информация : Audio Coding 3
Расширение режима : CM (complete main)
Параметр Endianness формата : Big
Идентификатор кодека : A_AC3
Продолжительность : 1 ч. 2 м.
Вид битрейта : Постоянный
Битрейт : 384 Кбит/сек
Каналы : 6 каналов
Расположение каналов : Front: L C R, Side: L R, LFE
Частота : 48,0 КГц
Частота кадров : 31,250 кадров/сек (1536 spf)
Метод сжатия : С потерями
Задержка видео : 12 мс.
Размер потока : 172 Мбайт (10%)
Заголовок : DD5.1 AlexFilm
Язык : Russian
Default : Да
Forced : Нет

Аудио #2
Идентификатор : 3
Формат : AC-3
Формат/Информация : Audio Coding 3
Расширение режима : CM (complete main)
Параметр Endianness формата : Big
Идентификатор кодека : A_AC3
Продолжительность : 1 ч. 2 м.
Вид битрейта : Постоянный
Битрейт : 384 Кбит/сек
Каналы : 6 каналов
Расположение каналов : Front: L C R, Side: L R, LFE
Частота : 48,0 КГц
Частота кадров : 31,250 кадров/сек (1536 spf)
Метод сжатия : С потерями
Задержка видео : 12 мс.
Размер потока : 172 Мбайт (10%)
Заголовок : DD5.1 Original
Язык : English
Default : Нет
Forced : Нет
Внимание! Раздача ведётся путём добавления новых серий; при каждом добавлении создаётся новый торрент. Чтобы начать докачку новой серии, пользователям необходимо сделать следующее:
(1) остановить скачивание,
(2) удалить старый торрент у себя из клиента (старые серии удалять не надо),
(3) скачать новый торрент и запустить его у себя в клиенте вместо старого, при этом указать клиенту путь в старую папку куда и должно происходить скачивание новых серий.
Ваш клиент при этом должен произвести хеширование (проверку) старой папки (если не производит сам - помогите ему сделать это), и будет докачивать только те серии которых у вас ещё нет. Старые серии при этом не удаляются, а продолжают раздаваться!
Eсли вы уже удалили старые серии, то предотвратить повторную закачку старых серий можно, отжав галочку в соответствующих местах при запуске нового торрента. По возможности, желательно не удалять старые серии как можно дольше чтобы релизёр не столько продолжал раздавать старые серии, а смог сконцентрироваться на новых.
piratbit.cc



Скачать Мистер Мерседес через торрент https://i86.fastpic.ru/big/2019/0913/c1/1b5ce4778d96ee6dd71fc267830864c1.jpg Скачать фильм Мистер Мерседес через торрент бесплантно в хорошем качестве Описание: Отставной полицейский Билл Ходжес возвращается к работе, так как ему не дает покоя нераскрытое дело — жестокое убийство восьми ... 10 10 2
Торрент: Зарегистрирован [2019-09-14 04:53] · скачан: 5 раз
Статус: √ проверено
Размер: 1.65 GB
Как cкачать? Как скачать Мистер Мерседес через торрент | qTorrent

% Раздел Тема Автор DL S | L
Зарубежные сериалы [ 1.77 GB ] Мистер Мерседес / Mr. Mercedes / Сезон: 3 / Серии: 1- из 10 [2019 WEB-DL 720p] MVO [TVShows] bober100 Скачать
1 | 2
Зарубежные сериалы [ 3.24 GB ] Мистер Мерседес / Mr. Mercedes / Сезон: 3 / Серии: 1- из 10 [2019 WEB-DL 1080p] MVO [TVShows] bober100 Скачать
3 | 0
Зарубежные сериалы [ 900 MB ] Мистер Мерседес / Mr. Mercedes / Сезон: 3 / Серии: 1 из 10 [2019 WEB-DLRip] MVO [LostFilm] bober100 Скачать
3 | 0
Зарубежные сериалы [ 863 MB ] Мистер Мерседес / Mr. Mercedes / Сезон: 3 / Серии: 1- из 10 [2019 WEB-DLRip] MVO [SDI Media] bober100 Скачать
2 | 0
Зарубежные сериалы [ 3.12 GB ] Мистер Мерседес / Mr. Mercedes / Сезон: 3 / Серии: 1 из 10 [2019 WEB-DL 1080p] MVO [Jaskier] bober100 Скачать
2 | 0
Зарубежные сериалы [ 1.65 GB ] Мистер Мерседес / Mr. Mercedes / Сезон: 3 / Серии: 1 из 10 [2019 WEB-DL 720p] MVO [Jaskier] bober100 Скачать
1 | 0
Зарубежные сериалы [ 751 MB ] Мистер Мерседес / Mr. Mercedes / Сезон: 3 / Серии: 1 из 10 [2019 WEB-DLRip] MVO [Jaskier] bober100 Скачать
1 | 0


>> Регистрируемся здесь <<






Отзывы и комментарии о схеме читаем и пишем здесь: ---> Отзывы и комментарии о схеме

Новые благодарочки в телеграм довольных пользователей:
скриншот   скриншот   скриншот   скриншот   скриншот
    Дорогой пользователь! Огромная просьба, поблагодарите релизера, оцените раздачу и оставьте свои комментарий, если Вы скачали Мистер Мерседес через торрент бесплатно! Внесите свою лепту в развитие PiratBit!
    Комментировать посты могут только пользователи прошедшие не сложную регистрацию
    Показать сообщения:    

    Мистер Мерседес через торрент
    Скачать бесплатно Мистер Мерседес
    Мистер Мерседес скачать торрент
    Мистер Мерседес смотреть онлайн
    Cкачать фильм Мистер Мерседес бесплатно
    Мистер Мерседес скачать торрент в хорошем качестве
    Мистер Мерседес смотреть онлайн бесплатно в хорошем качестве


    Вы не можете начинать темы
    Вы не можете отвечать на сообщения
    Вы не можете редактировать свои сообщения
    Вы не можете удалять свои сообщения
    Вы не можете голосовать в опросах
    Вы не можете прикреплять файлы к сообщениям
    Вы можете скачивать файлы