iTunes

1+1

iTunes

мы

iTunes

1

iTunes

Чернобыль

iTunes

Ральф против интернета

Лицензия

ПШазам

Лицензия

Игра престолов

Лицензия

30
pack

ВАЖНО

!!Акция!!

Alien_RageХит недели

RePack

Resident Evil 21

ИГРА 18+

pack

RePack

Metro:Exodus

!!Акция!!

Alien_Rage

RePack

fifa19

RePack

Assassins Creed: Odyssey

RePack

NEED FOR SPEED™ PAYBACK

3 сезон

9 сезон

Бесстыжие 9 сезон

Все сериалы

все сериалы на PB.wtf

RePack

FAR CRY 5
Ребята, катастрофически не хватает 7730р. для оплаты серверов за АВГУСТ (всвязи с блокировками трафик упал в 3 раза), 1-2р., выручайте.
  

Мистер Мерседес / Mr. Mercedes / Сезон: 3 / Серии: 1 из 10 (Джек Бендер, Лора Иннес, Джон Дэвид Коулз) [2019, Фантастика, триллер, детектив, WEB-DLRip] MVO [LostFilm] piratbit.cc

Мистер Мерседес через торрент piratbit.cc

Раздают: 2 [ 10 KB/s ]
Размер: 900 MB | Добавлен: 1 д. 13 ч. назад | Торрент скачан:2 раза
Скачать  

14-09-2019 05:07 Мистер Мерседес Скачать торрент  

Мистер Мерседес | Mr. Mercedes Год выпуска: 2019
Страна: США
Жанр: Фантастика, триллер, детектив
Продолжительность: ~ 01:00:00
Перевод: Профессиональный (многоголосый закадровый) | LostFilm
Субтитры: Английские (SDH)

Режиссёр: Джек Бендер, Лора Иннес, Джон Дэвид Коулз

В ролях: Брендан Глисон, Гарри Тредэвей, Джаррел Джером, Роберт Стэнтон, Бреда Вуд, Холланд Тейлор, Келли Линч, Скотт Лоуренс, Эд Андерсон, Макейла Лысяк, Нэнси Трэвис, Мэри-Луиз Паркер, Анна Дюбуа, Жюстин Люпе, Николь Барре, Роберт Фортунато, Джонатан Хавирд, Рармиан Ньютон, Бретт Гельман

Описание: Отставной полицейский Билл Ходжес возвращается к работе, так как ему не дает покоя нераскрытое дело — жестокое убийство шестнадцати человек. Брэди Хартфилд не может забыть пьянящее чувство, когда на угнанном «мерседесе» он врезался в группу ни в чём не повинных людей. Брэди не хочет останавливаться — он уже планирует новое преступление, на этот раз намного более масштабное. Биллу Ходжесу и его команде необходимо опередить его и спасти жизнь уже не десяткам, а сотням людей.



Качество: WEB-DLRip
Формат: AVI

Видео: XviD, 720x400 (16:9), 23.976 кадров/сек, 1600 Кбит/сек
Аудио Rus: AC3, 48,0 kHz, 2 ch, 192 Кбит/сек
Аудио Eng: AC3, 48,0 kHz, 2 ch, 192 Кбит/сек


Реклама: Отсутствует
За исходник спасибо lipovan
Общее
Полное имя : E:\Mr.Mercedes (Season 3) LostFilm WEB-DLRip\Mr.Mercedes.S03E01.WEB-DLRip.RGzsRutracker.[Wentworth_Miller].avi
Формат : AVI
Формат/Информация : Audio Video Interleave
Размер файла : 900 Мбайт
Продолжительность : 1 ч. 2 м.
Общий поток : 1998 Кбит/сек
Название фильма : Mr.Mercedes 3x01 (No Good Deed) - Release by Wentworth_Miller
Программа кодирования : VirtualDubMod 1.5.10.3 | www.virtualdub-fr.org || (build 2550/release)

Видео
Идентификатор : 0
Формат : MPEG-4 Visual
Профиль формата : Advanced Simple@L5
Настройки формата : BVOP1
Параметр BVOP формата : 1
Параметр QPel формата : Нет
Параметр GMC формата : Без точки перехода
Параметр матрицы формата : Default (MPEG)
Идентификатор кодека : XVID
Идентификатор кодека/Подсказка : XviD
Продолжительность : 1 ч. 2 м.
Битрейт : 1600 Кбит/сек
Ширина : 720 пикселей
Высота : 400 пикселей
Соотношение сторон : 16:9
Частота кадров : 23,976 (24000/1001) кадра/сек
Цветовое пространство : YUV
Субдискретизация насыщенности : 4:2:0
Битовая глубина : 8 бит
Тип развёртки : Прогрессивная
Метод сжатия : С потерями
Бит/(Пиксели*Кадры) : 0.232
Размер потока : 721 Мбайт (80%)
Библиотека кодирования : XviD 67

Аудио #1
Идентификатор : 1
Формат : AC-3
Формат/Информация : Audio Coding 3
Коммерческое название : Dolby Digital
Идентификатор кодека : 2000
Продолжительность : 1 ч. 2 м.
Вид битрейта : Постоянный
Битрейт : 192 Кбит/сек
Каналы : 2 канала
ChannelLayout : L R
Частота : 48,0 КГц
Частота кадров : 31,250 кадров/сек (1536 SPF)
Метод сжатия : С потерями
Размер потока : 86,5 Мбайт (10%)
Выравнивание : Разделение по промежуткам
Продолжительность промежутка : 42 мс. (1,00 видеокадр)
Время предзагрузки промежутка : 500 мс.
ServiceKind/String : Complete Main

Аудио #2
Идентификатор : 2
Формат : AC-3
Формат/Информация : Audio Coding 3
Коммерческое название : Dolby Digital
Идентификатор кодека : 2000
Продолжительность : 1 ч. 2 м.
Вид битрейта : Постоянный
Битрейт : 192 Кбит/сек
Каналы : 2 канала
ChannelLayout : L R
Частота : 48,0 КГц
Частота кадров : 31,250 кадров/сек (1536 SPF)
Метод сжатия : С потерями
Размер потока : 86,5 Мбайт (10%)
Выравнивание : Разделение по промежуткам
Продолжительность промежутка : 42 мс. (1,00 видеокадр)
Время предзагрузки промежутка : 500 мс.
ServiceKind/String : Complete Main
скриншот  скриншот  скриншот  скриншот  
Внимание! Раздача ведётся путём добавления новых серий; при каждом добавлении создаётся новый торрент. Чтобы начать докачку новой серии, пользователям необходимо сделать следующее:
(1) остановить скачивание,
(2) удалить старый торрент у себя из клиента (старые серии удалять не надо),
(3) скачать новый торрент и запустить его у себя в клиенте вместо старого, при этом указать клиенту путь в старую папку куда и должно происходить скачивание новых серий.

Ваш клиент при этом должен произвести хеширование (проверку) старой папки (если не производит сам - помогите ему сделать это), и будет докачивать только те серии которых у вас ещё нет. Старые серии при этом не удаляются, а продолжают раздаваться!

Eсли вы уже удалили старые серии, то предотвратить повторную закачку старых серий можно, отжав галочку в соответствующих местах при запуске нового торрента. По возможности, желательно не удалять старые серии как можно дольше чтобы релизёр не столько продолжал раздавать старые серии, а смог сконцентрироваться на новых.
piratbit.cc



Скачать Мистер Мерседес через торрент https://funkyimg.com/i/2WX7X.jpg Скачать фильм Мистер Мерседес через торрент бесплантно в хорошем качестве Описание: Отставной полицейский Билл Ходжес возвращается к работе, так как ему не дает покоя нераскрытое дело — жестокое убийство ... 10 10 2
Торрент: Зарегистрирован [2019-09-14 05:07] · скачан: 2 раз
Статус: √ проверено
Размер: 900 MB
Как cкачать? Как скачать Мистер Мерседес через торрент | qTorrent

% Раздел Тема Автор DL S | L
Зарубежные сериалы [ 1.77 GB ] Мистер Мерседес / Mr. Mercedes / Сезон: 3 / Серии: 1- из 10 [2019 WEB-DL 720p] MVO [TVShows] bober100 Скачать
1 | 2
Зарубежные сериалы [ 3.24 GB ] Мистер Мерседес / Mr. Mercedes / Сезон: 3 / Серии: 1- из 10 [2019 WEB-DL 1080p] MVO [TVShows] bober100 Скачать
3 | 0
Зарубежные сериалы [ 1.65 GB ] Мистер Мерседес / Mr. Mercedes / Сезон: 3 / Серии: 1- из 10 [2019 WEB-DL 720p] MVO [AlexFilm] bober100 Скачать
2 | 0
Зарубежные сериалы [ 863 MB ] Мистер Мерседес / Mr. Mercedes / Сезон: 3 / Серии: 1- из 10 [2019 WEB-DLRip] MVO [SDI Media] bober100 Скачать
2 | 0
Зарубежные сериалы [ 3.12 GB ] Мистер Мерседес / Mr. Mercedes / Сезон: 3 / Серии: 1 из 10 [2019 WEB-DL 1080p] MVO [Jaskier] bober100 Скачать
2 | 0
Зарубежные сериалы [ 1.65 GB ] Мистер Мерседес / Mr. Mercedes / Сезон: 3 / Серии: 1 из 10 [2019 WEB-DL 720p] MVO [Jaskier] bober100 Скачать
1 | 0
Зарубежные сериалы [ 751 MB ] Мистер Мерседес / Mr. Mercedes / Сезон: 3 / Серии: 1 из 10 [2019 WEB-DLRip] MVO [Jaskier] bober100 Скачать
1 | 0


>> Регистрируемся здесь <<






Отзывы и комментарии о схеме читаем и пишем здесь: ---> Отзывы и комментарии о схеме

Новые благодарочки в телеграм довольных пользователей:
скриншот   скриншот   скриншот   скриншот   скриншот
    Дорогой пользователь! Огромная просьба, поблагодарите релизера, оцените раздачу и оставьте свои комментарий, если Вы скачали Мистер Мерседес через торрент бесплатно! Внесите свою лепту в развитие PiratBit!
    Комментировать посты могут только пользователи прошедшие не сложную регистрацию
    Показать сообщения:    

    Мистер Мерседес через торрент
    Скачать бесплатно Мистер Мерседес
    Мистер Мерседес скачать торрент
    Мистер Мерседес смотреть онлайн
    Cкачать фильм Мистер Мерседес бесплатно
    Мистер Мерседес скачать торрент в хорошем качестве
    Мистер Мерседес смотреть онлайн бесплатно в хорошем качестве


    Вы не можете начинать темы
    Вы не можете отвечать на сообщения
    Вы не можете редактировать свои сообщения
    Вы не можете удалять свои сообщения
    Вы не можете голосовать в опросах
    Вы не можете прикреплять файлы к сообщениям
    Вы можете скачивать файлы