iTunes

1+1

iTunes

мы

iTunes

1

iTunes

Чернобыль

iTunes

Ральф против интернета

Лицензия

ПШазам

Лицензия

Игра престолов

Лицензия

30
pack

ВАЖНО

!!Акция!!

Alien_RageХит недели

RePack

Resident Evil 21

ИГРА 18+

pack

RePack

Metro:Exodus

!!Акция!!

Alien_Rage

RePack

fifa19

RePack

Assassins Creed: Odyssey

RePack

NEED FOR SPEED™ PAYBACK

3 сезон

9 сезон

Бесстыжие 9 сезон

Все сериалы

все сериалы на PB.wtf

RePack

FAR CRY 5
Ребята, катастрофически не хватает 7730р. для оплаты серверов за АВГУСТ (всвязи с блокировками трафик упал в 3 раза), 1-2р., выручайте.
  

Ночью Эвелин вышла из могилы / La Notte Che Evelyn Usci Dalla Tomba (Эмилио Миралья) [1971, ужасы, триллер, детектив, BDRip 1080p by msltel] AVO piratbit.cc

Ночью Эвелин вышла из могилы через торрент piratbit.cc

Раздают: 1 [ 47 KB/s ]
Размер: 9.17 GB | Добавлен: 1 д. 12 ч. назад | Торрент скачан:0 раз
Скачать  

14-09-2019 06:31 Ночью Эвелин вышла из могилы Скачать торрент  

Название: Ночью Эвелин вышла из могилы
Оригинальное название: La Notte Che Evelyn Usci Dalla Tomba
Год выпуска: 1971
Страна: Италия
Жанр: ужасы, триллер, детектив
Продолжительность: 01:42:48
Перевод: авторский

Режиссер: Эмилио Миралья
В ролях: Энтони Стеффен, Марина Малфатти, Эрика Бланк, Джакомо Росси-Стюарт, Энцо Тарашо, Умберто Рахо, Джоан С. Дэвис, Этторе Бевилакуа, Мария Тереза Тофано

О фильме: Состоятельный английский лорд по фамилии Каннингем потерял свою рыжеволосую жену-красавицу Эвелин. С тех пор рассудок Каннингема помутился, и он, знакомясь с рыжеволосыми девушками на улицах или в баре, приводит их в свой замок, издевается, насилует, а затем убивает. Пытаясь избавиться от навязчивых идей убийства, Каннингем женится и пытается лечиться у знакомого доктора. Вскоре новая жена Каннингема, заглянув в фамильный склеп, приходит к своему мужу и заявляет, что могила Эвелин пуста...



Качество: BDRip 1080p
Формат: MKV
Видео: MPEG-4 AVC, 11.8 Mбит/с, 1920x816, 23.976 кадр/с
Аудио 1: русский, AC3, 192 kbps, 2 ch, 48 kHz [авторский, Вадим Белов]
Аудио 2: итальянский, DTS, 768 kbps, ch, 48 kHz [оригинал]
Субтитры: английские
Главы/чаптеры
Общее
Уникальный идентификатор : 240602045547882999303209277333580716358 (0xB50244B72ED153118F07F1F4D35A9946)
Полное имя : D:\Video\Ночью Эвелин вышла из могилы.1971.BDRip 1080p by msltel.mkv
Формат : Matroska
Версия формата : Version 4
Размер файла : 9,17 Гбайт
Продолжительность : 1 ч. 42 м.
Общий поток : 12,8 Мбит/сек
Название фильма : Rip by msltel
Дата кодирования : UTC 2019-09-14 02:32:26
Программа кодирования : mkvmerge v8.2.0 ('World of Adventure') 64bit
Библиотека кодирования : libebml v1.3.1 + libmatroska v1.4.2

Видео
Идентификатор : 1
Формат : AVC
Формат/Информация : Advanced Video Codec
Профиль формата : High@L4.1
Настройки формата : CABAC / 4 Ref Frames
Параметр CABAC формата : Да
Параметр RefFrames формата : 4 кадра
Идентификатор кодека : V_MPEG4/ISO/AVC
Продолжительность : 1 ч. 42 м.
Битрейт : 11,8 Мбит/сек
Ширина : 1920 пикселей
Высота : 816 пикселей
Соотношение сторон : 2,35:1
Режим частоты кадров : Постоянный
Частота кадров : 23,976 (24000/1001) кадра/сек
Цветовое пространство : YUV
Субдискретизация насыщенности : 4:2:0
Битовая глубина : 8 бит
Тип развёртки : Прогрессивная
Бит/(Пиксели*Кадры) : 0.314
Размер потока : 8,48 Гбайт (92%)
Библиотека кодирования : x264 core 157 r2935 545de2f
Настройки программы : cabac=1 / ref=4 / deblock=1:-2:-2 / analyse=0x3:0x113 / me=umh / subme=11 / psy=1 / psy_rd=1.00:0.15 / mixed_ref=1 / me_range=32 / chroma_me=1 / trellis=2 / 8x8dct=1 / cqm=0 / deadzone=21,11 / fast_pskip=0 / chroma_qp_offset=-3 / threads=6 / lookahead_threads=1 / sliced_threads=0 / nr=0 / decimate=1 / interlaced=0 / bluray_compat=0 / constrained_intra=0 / bframes=13 / b_pyramid=2 / b_adapt=2 / b_bias=0 / direct=1 / weightb=1 / open_gop=0 / weightp=2 / keyint=230 / keyint_min=23 / scenecut=40 / intra_refresh=0 / rc_lookahead=40 / rc=crf / mbtree=1 / crf=20.0 / qcomp=0.60 / qpmin=0 / qpmax=69 / qpstep=4 / vbv_maxrate=50000 / vbv_bufsize=62500 / crf_max=0.0 / nal_hrd=none / filler=0 / ip_ratio=1.40 / aq=1:1.00
Язык : Italian
Default : Да
Forced : Нет

Аудио #1
Идентификатор : 2
Формат : AC-3
Формат/Информация : Audio Coding 3
Коммерческое название : Dolby Digital
Идентификатор кодека : A_AC3
Продолжительность : 1 ч. 42 м.
Вид битрейта : Постоянный
Битрейт : 192 Кбит/сек
Каналы : 2 канала
ChannelLayout : L R
Частота : 48,0 КГц
Частота кадров : 31,250 кадров/сек (1536 SPF)
Метод сжатия : С потерями
Размер потока : 141 Мбайт (2%)
Заголовок : Вадим Белов
Язык : Russian
ServiceKind/String : Complete Main
Default : Да
Forced : Нет

Аудио #2
Идентификатор : 4
Формат : DTS
Формат/Информация : Digital Theater Systems
Идентификатор кодека : A_DTS
Продолжительность : 1 ч. 42 м.
Вид битрейта : Постоянный
Битрейт : 768 Кбит/сек
Каналы : 1 канал
ChannelLayout : C
Частота : 48,0 КГц
Частота кадров : 93,750 кадра/сек (512 SPF)
Битовая глубина : 24 бит
Метод сжатия : С потерями
Размер потока : 565 Мбайт (6%)
Заголовок : original
Язык : Italian
Default : Нет
Forced : Нет

Текст
Идентификатор : 3
Формат : UTF-8
Идентификатор кодека : S_TEXT/UTF8
Идентификатор кодека/Информация : UTF-8 Plain Text
Продолжительность : 1 ч. 36 м.
Битрейт : 48 бит/сек
ElementCount : 1039
Размер потока : 34,0 Кбайт (0%)
Заголовок : английские
Язык : English
Default : Нет
Forced : Нет

Меню
00:00:00.000 : en:00:00:00.000
00:08:24.796 : en:00:08:24.796
00:17:54.407 : en:00:17:54.407
00:27:14.550 : en:00:27:14.550
00:34:00.080 : en:00:34:00.080
00:42:24.250 : en:00:42:24.250
00:47:50.326 : en:00:47:50.326
00:57:43.585 : en:00:57:43.585
01:07:10.818 : en:01:07:10.818
01:18:53.687 : en:01:18:53.687
01:27:00.048 : en:01:27:00.048
01:33:38.780 : en:01:33:38.780
piratbit.cc



Скачать Ночью Эвелин вышла из могилы через торрент https://c.radikal.ru/c39/1909/88/2b646e7183c3.jpg Скачать фильм Ночью Эвелин вышла из могилы через торрент бесплантно в хорошем качестве О фильме: Состоятельный английский лорд по фамилии Каннингем потерял свою рыжеволосую жену-красавицу Эвелин. С тех пор рассудок Каннингема ... 5 10 1
Торрент: Зарегистрирован [2019-09-14 06:31] · скачан: 0 раз
Статус: √ проверено
Размер: 9.17 GB
Как cкачать? Как скачать Ночью Эвелин вышла из могилы через торрент | qTorrent

% Раздел Тема Автор DL S | L
Фильмы с авторской озвучкой [ 3.35 GB ] Ночью Эвелин вышла из могилы / La Notte Che Evelyn Usci Dalla Tomba [1971 BDRip 720p by msltel] AVO msltel Скачать
2 | 0


>> Регистрируемся здесь <<






Отзывы и комментарии о схеме читаем и пишем здесь: ---> Отзывы и комментарии о схеме

Новые благодарочки в телеграм довольных пользователей:
скриншот   скриншот   скриншот   скриншот   скриншот
    Дорогой пользователь! Огромная просьба, поблагодарите релизера, оцените раздачу и оставьте свои комментарий, если Вы скачали Ночью Эвелин вышла из могилы через торрент бесплатно! Внесите свою лепту в развитие PiratBit!
    Комментировать посты могут только пользователи прошедшие не сложную регистрацию
    Показать сообщения:    

    Ночью Эвелин вышла из могилы через торрент
    Скачать бесплатно Ночью Эвелин вышла из могилы
    Ночью Эвелин вышла из могилы скачать торрент
    Ночью Эвелин вышла из могилы смотреть онлайн
    Cкачать фильм Ночью Эвелин вышла из могилы бесплатно
    Ночью Эвелин вышла из могилы скачать торрент в хорошем качестве
    Ночью Эвелин вышла из могилы смотреть онлайн бесплатно в хорошем качестве


    Вы не можете начинать темы
    Вы не можете отвечать на сообщения
    Вы не можете редактировать свои сообщения
    Вы не можете удалять свои сообщения
    Вы не можете голосовать в опросах
    Вы не можете прикреплять файлы к сообщениям
    Вы можете скачивать файлы