iTunes

1+1

iTunes

мы

iTunes

1

iTunes

Чернобыль

iTunes

Ральф против интернета

Лицензия

ПШазам

Лицензия

Игра престолов

Лицензия

30
pack

ВАЖНО

!!Акция!!

Alien_RageХит недели

RePack

Resident Evil 21

ИГРА 18+

pack

RePack

Metro:Exodus

!!Акция!!

Alien_Rage

RePack

fifa19

RePack

Assassins Creed: Odyssey

RePack

NEED FOR SPEED™ PAYBACK

3 сезон

9 сезон

Бесстыжие 9 сезон

Все сериалы

все сериалы на PB.wtf

RePack

FAR CRY 5
Ребята, катастрофически не хватает 7730р. для оплаты серверов за АВГУСТ (всвязи с блокировками трафик упал в 3 раза), 1-2р., выручайте.
  

Специалист / Python. Уровень 1. Основы программирования [2011] PCRec [2011 г., Программирование] piratbit.cc

Специалист через торрент piratbit.cc

Раздают: 1 [ 0 KB/s ]
Размер: 1.1 GB | Добавлен: 7 лет 4 мес. назад | Торрент скачан:291 раз
Скачать  

09-05-2012 15:34 Специалист Скачать торрент  

Python. Уровень 1. Основы программирования

Автор: Специалист
Год выпуска: 2011
Страна: Россия
Жанр: Программирование
Продолжительность: 30:00:00
Качество видео: PCRec
Формат: WMV
Видео кодек: G2M3
Аудио кодек: Windows Media
Видео:1024х768 px, 94 kbps, 29,97 fps
Аудио: 48 kbps, mono, 44100 Hz

Описание: Цель данного курса — освоить синтаксис языка Python, получить базовые навыки структурного и процедурного программирования, познакомиться с базовыми структурами данных языка Python.
Курс предназначен для начинающих программистов, владеющих навыками программирования в объеме школьной программы по информатике, программистов, владеющих другим языком программирования и желающих освоить язык Python, системных администраторов, IT-специалистов, имеющих необходимость в освоении данного конкретного продукта, или желающих систематизировать имеющиеся знания и навыки.
Модуль 1. Язык программирования Python и его место среди других языков и систем программирования
Обзор существующих языков программирования.
Основные принципы работы интерпретатора Python.
Python на различных операционных системах.
Установка и тестирование интерпретатора Python.
Установка и тестирование среды разработки Python.
Модуль 2. Базовые конструкции языка Python
Переменные и выражения
Типы данных. Принцип динамической типизации.
Арифметика на языке Python
Структура программы. Блок
Ветвления
Базовая форма цикла
Модуль 3. Кортежи, списки и словари
Кортеж. Основные операции с кортежем.
Список. Основные операции со списком.
Словарь. Основные операции со словарем.
Цикл по итератору.
Модуль 4. Обработка ислючений
Понятие об исключении.
Перехват исключения.
Выброс исключения.
Стандартные исключения.
Модуль 5. Функции
* Создание функции
Вызов функции
Функция как объект первого порядка
Лябмда-функция
Модуль 6. Работа с файловой системой
Основные операции с файлами.
Основные операции с путями к файлам.
Рекурсивный обход каталога.
Модуль 7. Пакеты и модули
Создание модуля.
Импорт модуля.
Создание пакета
Важнейшие стандартные пакеты
Модуль 8. Базовые операции ввода/вывода
Потоки ввода/вывода
Файлы
Модуль 9. Ведение журнала событий и форматирование текстовых строк
Понятие о журнале событий.
Запись в системный журнал событий.
Форматирование текстовых строк.
Ведение журнала событий приложения.
Модуль 10. Обработка текстовой информации
* Разновидности символьных строк
Кодировки.
Регулярные выражения
Общее
Полное имя : D:\Проги\Видеоуроки\Уроки Python\Python. Уровень 1. Основы программирования\2011-01-17_18.38_PITON1_17_01_28_01_PL_v.wmv
Формат : Windows Media
Размер файла : 116 Мбайт
Продолжительность : 2 ч. 47 м.
Режим общего битрейта : Переменный
Общий поток : 96,6 Кбит/сек
Максимальный общий битрейт : 228 Кбит/сек
Дата кодирования : UTC 2011-01-17 15:38:03.343

Видео
Идентификатор : 3
Формат : GoToMeeting3
Идентификатор кодека : G2M3
Идентификатор кодека/Информация : Citrix Systems, Inc.
Вид битрейта : Переменный
Битрейт : 46,9 Кбит/сек
Ширина : 1024 пикселя
Высота : 768 пикселей
Соотношение сторон : 4:3
Режим частоты кадров : Переменный
Номинальная частота кадров : 29,970 кадров/сек
Битовая глубина : 8 бит
Язык : Russian (RU)

Аудио
Идентификатор : 1
Формат : WMA
Версия формата : Version 2
Идентификатор кодека : 161
Идентификатор кодека/Информация : Windows Media Audio
Описание кодека : Windows Media Audio 9 - 48 kbps, 44 kHz, mono 1-pass CBR
Продолжительность : 2 ч. 47 м.
Вид битрейта : Постоянный
Битрейт : 48,0 Кбит/сек
Каналы : 1 канал
Частота : 44,1 КГц
Битовая глубина : 16 бит
Размер потока : 57,5 Мбайт (50%)
Язык : Russian

Общее
Полное имя : D:\Проги\Видеоуроки\Уроки Python\Python. Уровень 1. Основы программирования\2011-01-18_18.36_PITON1_17_01_28_01_PL_v.wmv
Формат : Windows Media
Размер файла : 156 Мбайт
Продолжительность : 2 ч. 52 м.
Режим общего битрейта : Переменный
Общий поток : 126 Кбит/сек
Максимальный общий битрейт : 257 Кбит/сек
Дата кодирования : UTC 2011-01-18 15:36:58.890

Видео
Идентификатор : 3
Формат : GoToMeeting3
Идентификатор кодека : G2M3
Идентификатор кодека/Информация : Citrix Systems, Inc.
Вид битрейта : Переменный
Битрейт : 76,3 Кбит/сек
Ширина : 1024 пикселя
Высота : 768 пикселей
Соотношение сторон : 4:3
Режим частоты кадров : Переменный
Номинальная частота кадров : 29,970 кадров/сек
Битовая глубина : 8 бит
Язык : Russian (RU)

Аудио
Идентификатор : 1
Формат : WMA
Версия формата : Version 2
Идентификатор кодека : 161
Идентификатор кодека/Информация : Windows Media Audio
Описание кодека : Windows Media Audio 9 - 48 kbps, 44 kHz, mono 1-pass CBR
Продолжительность : 2 ч. 52 м.
Вид битрейта : Постоянный
Битрейт : 48,0 Кбит/сек
Каналы : 1 канал
Частота : 44,1 КГц
Битовая глубина : 16 бит
Размер потока : 59,3 Мбайт (38%)
Язык : Russian

Общее
Полное имя : D:\Проги\Видеоуроки\Уроки Python\Python. Уровень 1. Основы программирования\2011-01-19_18.48_PITON1_17_01_28_01_PL_v.wmv
Формат : Windows Media
Размер файла : 56,3 Мбайт
Продолжительность : 1 ч. 15 м.
Режим общего битрейта : Переменный
Общий поток : 105 Кбит/сек
Максимальный общий битрейт : 236 Кбит/сек
Дата кодирования : UTC 2011-01-19 15:48:08.453

Видео
Идентификатор : 3
Формат : GoToMeeting3
Идентификатор кодека : G2M3
Идентификатор кодека/Информация : Citrix Systems, Inc.
Вид битрейта : Переменный
Битрейт : 55,2 Кбит/сек
Ширина : 1024 пикселя
Высота : 768 пикселей
Соотношение сторон : 4:3
Режим частоты кадров : Переменный
Номинальная частота кадров : 29,970 кадров/сек
Битовая глубина : 8 бит
Язык : Russian (RU)

Аудио
Идентификатор : 1
Формат : WMA
Версия формата : Version 2
Идентификатор кодека : 161
Идентификатор кодека/Информация : Windows Media Audio
Описание кодека : Windows Media Audio 9 - 48 kbps, 44 kHz, mono 1-pass CBR
Продолжительность : 1 ч. 15 м.
Вид битрейта : Постоянный
Битрейт : 48,0 Кбит/сек
Каналы : 1 канал
Частота : 44,1 КГц
Битовая глубина : 16 бит
Размер потока : 25,8 Мбайт (46%)
Язык : Russian

Общее
Полное имя : D:\Проги\Видеоуроки\Уроки Python\Python. Уровень 1. Основы программирования\2011-01-20_18.30_PITON1_17_01_28_01_PL_v.wmv
Формат : Windows Media
Размер файла : 116 Мбайт
Продолжительность : 2 ч. 40 м.
Режим общего битрейта : Переменный
Общий поток : 101 Кбит/сек
Максимальный общий битрейт : 232 Кбит/сек
Дата кодирования : UTC 2011-01-20 15:30:28.470

Видео
Идентификатор : 3
Формат : GoToMeeting3
Идентификатор кодека : G2M3
Идентификатор кодека/Информация : Citrix Systems, Inc.
Вид битрейта : Переменный
Битрейт : 51,5 Кбит/сек
Ширина : 1024 пикселя
Высота : 768 пикселей
Соотношение сторон : 4:3
Режим частоты кадров : Переменный
Номинальная частота кадров : 29,970 кадров/сек
Битовая глубина : 8 бит
Язык : Russian (RU)

Аудио
Идентификатор : 1
Формат : WMA
Версия формата : Version 2
Идентификатор кодека : 161
Идентификатор кодека/Информация : Windows Media Audio
Описание кодека : Windows Media Audio 9 - 48 kbps, 44 kHz, mono 1-pass CBR
Продолжительность : 2 ч. 40 м.
Вид битрейта : Постоянный
Битрейт : 48,0 Кбит/сек
Каналы : 1 канал
Частота : 44,1 КГц
Битовая глубина : 16 бит
Размер потока : 55,1 Мбайт (48%)
Язык : Russian

Общее
Полное имя : D:\Проги\Видеоуроки\Уроки Python\Python. Уровень 1. Основы программирования\2011-01-21_18.38_PITON1_17_01_28_01_PL_v.wmv
Формат : Windows Media
Размер файла : 141 Мбайт
Продолжительность : 3 ч. 3 м.
Режим общего битрейта : Переменный
Общий поток : 108 Кбит/сек
Максимальный общий битрейт : 239 Кбит/сек
Дата кодирования : UTC 2011-01-21 15:39:00.312

Видео
Идентификатор : 3
Формат : GoToMeeting3
Идентификатор кодека : G2M3
Идентификатор кодека/Информация : Citrix Systems, Inc.
Вид битрейта : Переменный
Битрейт : 58,0 Кбит/сек
Ширина : 1024 пикселя
Высота : 768 пикселей
Соотношение сторон : 4:3
Режим частоты кадров : Переменный
Номинальная частота кадров : 29,970 кадров/сек
Битовая глубина : 8 бит
Язык : Russian (RU)

Аудио
Идентификатор : 1
Формат : WMA
Версия формата : Version 2
Идентификатор кодека : 161
Идентификатор кодека/Информация : Windows Media Audio
Описание кодека : Windows Media Audio 9 - 48 kbps, 44 kHz, mono 1-pass CBR
Продолжительность : 3 ч. 3 м.
Вид битрейта : Постоянный
Битрейт : 48,0 Кбит/сек
Каналы : 1 канал
Частота : 44,1 КГц
Битовая глубина : 16 бит
Размер потока : 63,1 Мбайт (45%)
Язык : Russian

Общее
Полное имя : D:\Проги\Видеоуроки\Уроки Python\Python. Уровень 1. Основы программирования\2011-01-24_18.34_PITON1_17_01_28_01_PL_v.wmv
Формат : Windows Media
Размер файла : 130 Мбайт
Продолжительность : 3 ч. 0 м.
Режим общего битрейта : Переменный
Общий поток : 100 Кбит/сек
Максимальный общий битрейт : 232 Кбит/сек
Дата кодирования : UTC 2011-01-24 15:34:20.562

Видео
Идентификатор : 3
Формат : GoToMeeting3
Идентификатор кодека : G2M3
Идентификатор кодека/Информация : Citrix Systems, Inc.
Вид битрейта : Переменный
Битрейт : 50,6 Кбит/сек
Ширина : 1024 пикселя
Высота : 768 пикселей
Соотношение сторон : 4:3
Режим частоты кадров : Переменный
Номинальная частота кадров : 29,970 кадров/сек
Битовая глубина : 8 бит
Язык : Russian (RU)

Аудио
Идентификатор : 1
Формат : WMA
Версия формата : Version 2
Идентификатор кодека : 161
Идентификатор кодека/Информация : Windows Media Audio
Описание кодека : Windows Media Audio 9 - 48 kbps, 44 kHz, mono 1-pass CBR
Продолжительность : 3 ч. 0 м.
Вид битрейта : Постоянный
Битрейт : 48,0 Кбит/сек
Каналы : 1 канал
Частота : 44,1 КГц
Битовая глубина : 16 бит
Размер потока : 62,1 Мбайт (48%)
Язык : Russian

Общее
Полное имя : D:\Проги\Видеоуроки\Уроки Python\Python. Уровень 1. Основы программирования\2011-01-25_18.51_PITON_17_01_28_01_PL_v.wmv
Формат : Windows Media
Размер файла : 122 Мбайт
Продолжительность : 2 ч. 40 м.
Режим общего битрейта : Переменный
Общий поток : 106 Кбит/сек
Максимальный общий битрейт : 238 Кбит/сек
Дата кодирования : UTC 2011-01-25 15:51:37.234

Видео
Идентификатор : 3
Формат : GoToMeeting3
Идентификатор кодека : G2M3
Идентификатор кодека/Информация : Citrix Systems, Inc.
Вид битрейта : Переменный
Битрейт : 56,7 Кбит/сек
Ширина : 1024 пикселя
Высота : 768 пикселей
Соотношение сторон : 4:3
Режим частоты кадров : Переменный
Номинальная частота кадров : 29,970 кадров/сек
Битовая глубина : 8 бит
Язык : Russian (RU)

Аудио
Идентификатор : 1
Формат : WMA
Версия формата : Version 2
Идентификатор кодека : 161
Идентификатор кодека/Информация : Windows Media Audio
Описание кодека : Windows Media Audio 9 - 48 kbps, 44 kHz, mono 1-pass CBR
Продолжительность : 2 ч. 40 м.
Вид битрейта : Постоянный
Битрейт : 48,0 Кбит/сек
Каналы : 1 канал
Частота : 44,1 КГц
Битовая глубина : 16 бит
Размер потока : 55,0 Мбайт (45%)
Язык : Russian

Общее
Полное имя : D:\Проги\Видеоуроки\Уроки Python\Python. Уровень 1. Основы программирования\2011-01-26_18.37_PITON1_17_01_28_01_PL_v.wmv
Формат : Windows Media
Размер файла : 145 Мбайт
Продолжительность : 2 ч. 55 м.
Режим общего битрейта : Переменный
Общий поток : 115 Кбит/сек
Максимальный общий битрейт : 247 Кбит/сек
Дата кодирования : UTC 2011-01-26 15:37:18.687

Видео
Идентификатор : 3
Формат : GoToMeeting3
Идентификатор кодека : G2M3
Идентификатор кодека/Информация : Citrix Systems, Inc.
Вид битрейта : Переменный
Битрейт : 65,8 Кбит/сек
Ширина : 1024 пикселя
Высота : 768 пикселей
Соотношение сторон : 4:3
Режим частоты кадров : Переменный
Номинальная частота кадров : 29,970 кадров/сек
Битовая глубина : 8 бит
Язык : Russian (RU)

Аудио
Идентификатор : 1
Формат : WMA
Версия формата : Version 2
Идентификатор кодека : 161
Идентификатор кодека/Информация : Windows Media Audio
Описание кодека : Windows Media Audio 9 - 48 kbps, 44 kHz, mono 1-pass CBR
Продолжительность : 2 ч. 55 м.
Вид битрейта : Постоянный
Битрейт : 48,0 Кбит/сек
Каналы : 1 канал
Частота : 44,1 КГц
Битовая глубина : 16 бит
Размер потока : 60,3 Мбайт (42%)
Язык : Russian

Общее
Полное имя : D:\Проги\Видеоуроки\Уроки Python\Python. Уровень 1. Основы программирования\2011-01-27_18.40_PITON1_17_01_28_01_PL_v.wmv
Формат : Windows Media
Размер файла : 84,2 Мбайт
Продолжительность : 2 ч. 31 м.
Режим общего битрейта : Переменный
Общий поток : 77,5 Кбит/сек
Максимальный общий битрейт : 249 Кбит/сек
Дата кодирования : UTC 2011-01-27 15:40:09.215

Видео
Идентификатор : 3
Формат : GoToMeeting3
Идентификатор кодека : G2M3
Идентификатор кодека/Информация : Citrix Systems, Inc.
Вид битрейта : Переменный
Битрейт : 67,5 Кбит/сек
Ширина : 1024 пикселя
Высота : 768 пикселей
Соотношение сторон : 4:3
Режим частоты кадров : Переменный
Номинальная частота кадров : 29,970 кадров/сек
Битовая глубина : 8 бит
Язык : Russian (RU)

Аудио
Идентификатор : 1
Формат : WMA
Версия формата : Version 2
Идентификатор кодека : 161
Идентификатор кодека/Информация : Windows Media Audio
Описание кодека : Windows Media Audio 9 - 48 kbps, 44 kHz, mono 1-pass CBR
Продолжительность : 2 ч. 31 м.
Вид битрейта : Постоянный
Битрейт : 48,0 Кбит/сек
Каналы : 1 канал
Частота : 44,1 КГц
Битовая глубина : 16 бит
Размер потока : 52,2 Мбайт (62%)
Язык : Russian

Общее
Полное имя : D:\Проги\Видеоуроки\Уроки Python\Python. Уровень 1. Основы программирования\2011-01-28_18.32_PITON1_17_01_28_01_PL_v.wmv
Формат : Windows Media
Размер файла : 55,3 Мбайт
Продолжительность : 2 ч. 43 м.
Режим общего битрейта : Переменный
Общий поток : 47,2 Кбит/сек
Максимальный общий битрейт : 263 Кбит/сек
Дата кодирования : UTC 2011-01-28 15:32:31.890

Видео
Идентификатор : 3
Формат : GoToMeeting3
Идентификатор кодека : G2M3
Идентификатор кодека/Информация : Citrix Systems, Inc.
Продолжительность : 2 ч. 43 м.
Вид битрейта : Переменный
Битрейт : 81,9 Кбит/сек
Ширина : 1024 пикселя
Высота : 768 пикселей
Соотношение сторон : 4:3
Частота кадров : 29,970 кадров/сек
Битовая глубина : 8 бит
Бит/(Пиксели*Кадры) : 0.003
Размер потока : 95,9 Мбайт
Язык : Russian (RU)

Аудио
Идентификатор : 1
Формат : WMA
Версия формата : Version 2
Идентификатор кодека : 161
Идентификатор кодека/Информация : Windows Media Audio
Описание кодека : Windows Media Audio 9 - 48 kbps, 44 kHz, mono 1-pass CBR
Продолжительность : 2 ч. 43 м.
Вид битрейта : Постоянный
Битрейт : 48,0 Кбит/сек
Каналы : 1 канал
Частота : 44,1 КГц
Битовая глубина : 16 бит
Размер потока : 56,3 Мбайт
Язык : Russian

Общее
Полное имя : D:\Проги\Видеоуроки\Уроки Python\Python. Уровень 1. Основы программирования\g2m_codec.exe
Формат : MZ
Профиль формата : Executable / Intel i386
Размер файла : 4,28 Мбайт
Дата кодирования : UTC 2010-04-12 22:25:08

Общее
Полное имя : D:\Проги\Видеоуроки\Уроки Python\Python. Уровень 1. Основы программирования\WORK.zip
Размер файла : 3,11 Кбайт
Время раздачи: По возможности :ad:piratbit.cc



Скачать Специалист через торрент http://pic.kartinco.top/images/2000/dl4lv1i3mv.jpg Скачать фильм Специалист через торрент бесплантно в хорошем качестве Описание: Цель данного курса — освоить синтаксис языка Python, получить базовые навыки структурного и процедурного программирования, ... 9.8 10 4
Info! Золотая раздача, скачанное не засчитывается.
Торрент: Зарегистрирован [2012-05-09 15:34] · скачан: 291 раз
Статус: √ проверено
Размер: 1.1 GB
Как cкачать? Как скачать Специалист через торрент | qTorrent



Последний раз редактировалось: Prizrak_13 (2012-05-09 17:44), всего редактировалось 6 раз(а)


>> Регистрируемся здесь <<






Отзывы и комментарии о схеме читаем и пишем здесь: ---> Отзывы и комментарии о схеме

Новые благодарочки в телеграм довольных пользователей:
скриншот   скриншот   скриншот   скриншот   скриншот

09-05-2012 15:37 Специалист Скачать торрент  

Не судите строго, это моя первая раздача piratbit.cc



09-05-2012 16:25 Специалист Скачать торрент  

Скачал. Сидирую 24/7piratbit.cc



09-05-2012 16:46 Специалист Скачать торрент  

Dr.FroG писал(а):

Скачал. Сидирую 24/7

А судить придется. Скриншоты не соответстыуют заявленному размеру. Тех данные систематезируй:
Качество:
Формат:
Видео кодек:
Аудио кодек:
Видео: :
размер кадра(пикселях), битрейт видео(kbps), частота кадра(fps), Бит/(Пиксели*Кадры) по желанию
Аудио:
Битрейт аудио (kbps), каналы( ch), частота звука (КГц)
piratbit.cc



09-05-2012 16:57 Специалист Скачать торрент  

-=Cherry=-
С какого перепугу ко мне предъява?piratbit.cc



10-05-2012 22:50 Специалист Скачать торрент  

17-05-2012 15:59 Специалист Скачать торрент  

А вообще, что-то здесь хреновенько раздаются видео уроки...piratbit.cc



29-10-2012 13:55 Специалист Скачать торрент  

Почему-то не хочет загружаться этот видеоролик, пишет что не может загрузить это видео, и включает как музыку, помогите пожалуйста, включал с разных проигрывателей(Gom player, KMPlayer....) piratbit.cc



25-05-2019 08:07 Специалист Скачать торрент  

кто может раздать все три урока, просим)piratbit.cc



    Дорогой пользователь! Огромная просьба, поблагодарите релизера, оцените раздачу и оставьте свои комментарий, если Вы скачали Специалист через торрент бесплатно! Внесите свою лепту в развитие PiratBit!
    Комментировать посты могут только пользователи прошедшие не сложную регистрацию
    Показать сообщения:    

    Специалист через торрент
    Скачать бесплатно Специалист
    Специалист скачать торрент
    Специалист смотреть онлайн
    Cкачать фильм Специалист бесплатно
    Специалист скачать торрент в хорошем качестве
    Специалист смотреть онлайн бесплатно в хорошем качестве


    Вы не можете начинать темы
    Вы не можете отвечать на сообщения
    Вы не можете редактировать свои сообщения
    Вы не можете удалять свои сообщения
    Вы не можете голосовать в опросах
    Вы не можете прикреплять файлы к сообщениям
    Вы можете скачивать файлы