iTunes

1+1

iTunes

мы

iTunes

1

1 сезон

Чернобыль

1 сезон

Ральф против интернета

Лицензия

ПШазам

8 сезон

Игра престолов

Лицензия

30
pack

ВАЖНО

!!Акция!!

Alien_RageХит недели

RePack

Resident Evil 21

ИГРА 18+

pack

RePack

Metro:Exodus

!!Акция!!

Alien_Rage

RePack

fifa19

RePack

Assassins Creed: Odyssey

RePack

NEED FOR SPEED™ PAYBACK

3 сезон

9 сезон

Бесстыжие 9 сезон

Все сериалы

все сериалы на PB.wtf

RePack

FAR CRY 5
Ребята, катастрофически не хватает 2730р. для оплаты серверов за ИЮНЬ (всвязи с блокировками трафик упал в 3 раза), 1-2р., выручайте.
  

Черный тюльпан / La tulipe noire (Кристиан-Жак) [1963 г., боевик, комедия, приключения, DVDRip, DUB (лицензия)] piratbit.cc

Черный тюльпан через торрент piratbit.cc

Размер: 1.37 GB | Добавлен: 6 лет 11 мес. назад | Торрент скачан:107 раз
Скачать  

21-07-2012 16:39 Черный тюльпан Скачать торрент  

Черный тюльпан / La tulipe noire

Год выпуска: 1963
Страна: Франция, Италия, Испания
Жанр: боевик, комедия, приключения
Продолжительность: 01:48:25
Перевод: Дублированный

Режиссер: Кристиан-Жак
Продюссер: Лео Чевенини, Жорж Чейко, Витторио Мартино
Сценарий: Поль Андреота, Кристиан-Жак, Анри Жансон

Премьера в мире: 28 февраля 1964

MPAA: G-без возростных ограничений
IMDb: 6.60 (826)
Кинопоиск: 7.587 1 046

В ролях: Ален Делон, Вирна Лизи, Адольфо Марсийяк, Дон Аддамс, Аким Тамирофф, Лаура Валенсуэла, Жорж Риго, Франсис Бланш, Хосе Хаспе, Перла Кристал

Описание: Накануне Французской революции в тихой провинции жуткий страх наводит на знатных мерзавцев таинственный разбойник в маске, чьим фирменным знаком стал черный тюльпан. Неуловимый мститель находчив, бесстрашен, благороден и умен, он прекрасный наездник и гений фехтования. Дворянин Жульен — беспечный неженка, глупый и трусливый — совсем на него не похож. Но никто не знает, что есть нечто, крепко связывающее этих двоих.

Доп. информация: Когда смотришь старые фильмы, невольно сравниваешь их с современными и это сравнение бывает отнюдь не в пользу последних.

Да, современные фильмы зрелищнее, но в старых больше души. В современных акцент делается на спецэффекты и пиар (не во всех, разумеется), а в старых — на сценарий и актерскую игру.

Ален Делон сыграл блестяще — и самоуверенный ловелас-дворянин, и его тихий, стеснительный брат получились очень убедительно. Сюжет местами кажется наивным, но в этом определенно есть своя прелесть. А уж сколько в «Черном тюльпане» юмора! Иногда достаточно взглянуть на выражение лиц префекта и ему подобных, чтобы рассмеяться — эти образы получились карикатурными, но очень яркими. А уж их речи — просто сплошные перлы.

Качество: DVDRip
Формат: AVI
Видео кодек: XviD
Аудио кодек: AC3
Видео: 720x288 (2.50:1), 25 fps, XviD MPEG-4 ~1613 kbps avg, 0.31 bit/pixel
Аудио#1: 48 kHz, AC3 Dolby Digital, 2/0 (L,R) ch, ~192.00 kbps avg
Релиз от: сторонний ресурс










Общее
Полное имя : H:torrentChiornyj.tiulpan.1964.XviD.DVDRip.сторонний ресурс.avi
Формат : AVI
Формат/Информация : Audio Video Interleave
Размер файла : 1,37 Гбайт
Продолжительность : 1 ч. 48 м.
Общий поток : 1815 Кбит/сек
Программа кодирования : VirtualDubModRus 1.5.10.2 (build 2542/release)
Библиотека кодирования : VirtualDubMod build 2542/release

Видео
Идентификатор : 0
Формат : MPEG-4 Visual
Профиль формата : Advanced Simple@L5
Параметр BVOP формата : 1
Параметр QPel формата : Нет
Параметр GMC формата : Без точки перехода
Параметр матрицы формата : Default (MPEG)
Режим смешивания : Сжатый битовый поток
Идентификатор кодека : XVID
Идентификатор кодека/Подсказка : XviD
Продолжительность : 1 ч. 48 м.
Битрейт : 1613 Кбит/сек
Ширина : 720 пикс.
Высота : 288 пикс.
Соотношение сторон : 2,500
Частота кадров : 25,000 кадр/сек
Цветовое пространство : YUV
Подвыборка цветности : 4:2:0
Битовая глубина : 8 бит
Тип развёртки : Прогрессивная
Метод сжатия : С потерями
Бит/(Пиксели*Кадры) : 0.311
Размер потока : 1,22 Гбайт (89%)
Библиотека кодирования : XviD 1.2.0.dev47 (UTC 2006-11-01)

Аудио
Идентификатор : 1
Формат : AC-3
Формат/Информация : Audio Coding 3
Расширение режима : CM (complete main)
Идентификатор кодека : 2000
Продолжительность : 1 ч. 48 м.
Вид битрейта : Постоянный
Битрейт : 192 Кбит/сек
Каналы : 2 канала
Расположение каналов : Front: L R
Частота : 48,0 КГц
Битовая глубина : 16 бит
Метод сжатия : С потерями
Размер потока : 149 Мбайт (11%)
Выравнивание : Разделение по промежуткам
Продолжительность промежутка : 40 мс. (1,00 видеокадр)
Время предзагрузки промежутка : 500 ms

piratbit.cc



Скачать Черный тюльпан через торрент http://pic.kartinco.top/images/1/9s6ey3zhxi.jpg Скачать фильм Черный тюльпан через торрент бесплантно в хорошем качестве Описание: Накануне Французской революции в тихой провинции жуткий страх наводит на знатных мерзавцев таинственный разбойник в маске, чьим ... 9.5 10 2
Info! Золотая раздача, скачанное не засчитывается.
Торрент: Зарегистрирован [2012-07-21 16:39] · скачан: 107 раз
Статус: √ проверено
Размер: 1.37 GB
Как cкачать? Как скачать Черный тюльпан через торрент | qTorrent

% Раздел Тема Автор DL S | L
Фильмы [HD 720p, 1080p] (Хороший звук DUB, MVO) [ 14.32 GB ] Чёрный тюльпан / La tulipe noire [1964 BDRip 1080p by msltel] DUB MVO msltel Скачать
1 | 0
Фильмы [HD 720p, 1080p] (Хороший звук DUB, MVO) [ 4.93 GB ] Чёрный тюльпан / La tulipe noire [1964 BDRip 720p by msltel] DUB MVO msltel Скачать
3 | 0


Последний раз редактировалось: jump88 (2012-11-26 03:55), всего редактировалось 2 раз(а)


>> Регистрируемся здесь <<






Отзывы и комментарии о схеме читаем и пишем здесь: ---> Отзывы и комментарии о схеме

Новые благодарочки в телеграм довольных пользователей:
скриншот   скриншот   скриншот   скриншот   скриншот

22-07-2012 07:51 Черный тюльпан Скачать торрент  

Раньше было интересно,щяс как то не тянетpiratbit.cc



27-01-2013 12:51 Черный тюльпан Скачать торрент  

Ах, Ален Делон! Супергерой моего детства piratbit.cc



    Дорогой пользователь! Огромная просьба, поблагодарите релизера, оцените раздачу и оставьте свои комментарий, если Вы скачали Черный тюльпан через торрент бесплатно! Внесите свою лепту в развитие PiratBit!
    Комментировать посты могут только пользователи прошедшие не сложную регистрацию
    Показать сообщения:    

    Черный тюльпан через торрент
    Скачать бесплатно Черный тюльпан
    Черный тюльпан скачать торрент
    Черный тюльпан смотреть онлайн
    Cкачать фильм Черный тюльпан бесплатно
    Черный тюльпан скачать торрент в хорошем качестве
    Черный тюльпан смотреть онлайн бесплатно в хорошем качестве


    Вы не можете начинать темы
    Вы не можете отвечать на сообщения
    Вы не можете редактировать свои сообщения
    Вы не можете удалять свои сообщения
    Вы не можете голосовать в опросах
    Вы не можете прикреплять файлы к сообщениям
    Вы можете скачивать файлы