iTunes

1+1

iTunes

мы

iTunes

1

1 сезон

Чернобыль

1 сезон

Ральф против интернета

Лицензия

ПШазам

8 сезон

Игра престолов

Лицензия

30
pack

ВАЖНО

!!Акция!!

Alien_RageХит недели

RePack

Resident Evil 21

ИГРА 18+

pack

RePack

Metro:Exodus

!!Акция!!

Alien_Rage

RePack

fifa19

RePack

Assassins Creed: Odyssey

RePack

NEED FOR SPEED™ PAYBACK

3 сезон

9 сезон

Бесстыжие 9 сезон

Все сериалы

все сериалы на PB.wtf

RePack

FAR CRY 5
Ребята, катастрофически не хватает 2730р. для оплаты серверов за ИЮНЬ (всвязи с блокировками трафик упал в 3 раза), 1-2р., выручайте.
  

Три мушкетера / Les trois mousquetaires (Бернар Бордери) [1961 г., исторический, приключенческий, DVDRip, DUB (лицензия)] piratbit.cc

Три мушкетера через торрент piratbit.cc

Размер: 1.74 GB | Добавлен: 6 лет 11 мес. назад | Торрент скачан:80 раз
Скачать  

23-07-2012 23:21 Три мушкетера Скачать торрент  

Три мушкетера / Les trois mousquetaires

Год выпуска: 1966
Страна: Франция-Италия
Жанр: исторический, приключенческий
Продолжительность: 01:38:25 + 01:33:49
Перевод: Дубляж (Лицензия)

Режиссер: Бернар Бордери

В ролях: Жерар Барре/Gerard Barray, Жорж Декрие/Georges Descrieres, Бернар Воринже/Bernard Voringer, Жак Тожа/Jacques Toja, Милен Демонжо/Mylene Demongeot

Описание: По всеобщему мнению - один из самых культовых зарубежных кинофильмов в отечественном кинопрокате.

1-я серия ("Подвески королевы") повествует о приключениях молодого гасконца д'Артаньяна, прибывшего в Париж с мечтой вступить в полк королевских мушкетеров. Ему удается это не сразу, тем не менее, среди них он находит верных и преданных друзей: Атоса, Портоса и Арамиса, вместе с которыми оказывается вовлеченным в круговорот захватывающих приключений.

2-я серия ("Месть миледи") продолжает рассказ о приключениях четырех друзей. Снискав милость и покровительство королевы Анны Австрийской, которую они спасли от бесчестия, герои навлекают на себя гнев и ненависть влиятельнейших лиц королевства во главе со всемогущим кардиналом Ришелье. Им не остается ничего иного, как вступить в неравный бой с многочисленными врагами - и победить!

Доп. информация: "Подвески Королевы" и "Месть Миледи".. Лучшая экранизация романа А.Дюма. Абсолютный лидер проката 1966-1967 гг. Фильм "Три мушкетера"оставался популярным все последующие годы. При повторном выпуске вновь побил все рекорды.

Качество: DVDRip
Формат: AVI
Видео кодек: XviD
Аудио кодек: AC3
Видео: 720x326 (2.21:1), 25 fps, XviD MPEG-4 ~1173 kbps avg, 0.20 bit/pixel
Аудио#1: 48 kHz, AC3 Dolby Digital, 2/0 (L,R) ch, ~128.00 kbps avg












Общее
Полное имя : H:torrentTri. mushketyora.1966.DVDRip.KinomanTri mushketyora.1966.DVDRip.avi
Формат : AVI
Формат/Информация : Audio Video Interleave
Размер файла : 924 Мбайт
Продолжительность : 1 ч. 38 м.
Общий поток : 1313 Кбит/сек
Название фильма : DVD_VOLUME.Title1.DVDRip
Программа кодирования : Lavf53.21.0
Формат оригинала/Имя : DVD_VOLUME

Видео
Идентификатор : 0
Формат : MPEG-4 Visual
Профиль формата : Advanced Simple@L5
Параметр BVOP формата : 2
Параметр QPel формата : Нет
Параметр GMC формата : Без точки перехода
Параметр матрицы формата : Default (H.263)
Режим смешивания : Сжатый битовый поток
Идентификатор кодека : XVID
Идентификатор кодека/Подсказка : XviD
Продолжительность : 1 ч. 38 м.
Битрейт : 1174 Кбит/сек
Ширина : 720 пикс.
Высота : 326 пикс.
Соотношение сторон : 2,2:1
Частота кадров : 25,000 кадр/сек
Цветовое пространство : YUV
Подвыборка цветности : 4:2:0
Битовая глубина : 8 бит
Тип развёртки : Прогрессивная
Метод сжатия : С потерями
Бит/(Пиксели*Кадры) : 0.200
Размер потока : 827 Мбайт (89%)
Библиотека кодирования : XviD 1.2.1 (UTC 2008-12-04)

Аудио
Идентификатор : 1
Формат : AC-3
Формат/Информация : Audio Coding 3
Расширение режима : CM (complete main)
Идентификатор кодека : 2000
Продолжительность : 1 ч. 38 м.
Вид битрейта : Постоянный
Битрейт : 128 Кбит/сек
Каналы : 2 канала
Расположение каналов : Front: L R
Частота : 48,0 КГц
Битовая глубина : 16 бит
Метод сжатия : С потерями
Размер потока : 90,1 Мбайт (10%)
Выравнивание : Соединение по промежуткам
Продолжительность промежутка : 32 мс. (0,80 видеокадр)

piratbit.cc



Скачать Три мушкетера через торрент http://pic.kartinco.top/images/1/m9mehw1w3v.jpg Скачать фильм Три мушкетера через торрент бесплантно в хорошем качестве Описание: По всеобщему мнению - один из самых культовых зарубежных кинофильмов в отечественном кинопрокате. 1-я серия ("Подвески ... 10 10 3
Info! Золотая раздача, скачанное не засчитывается.
Торрент: Зарегистрирован [2012-07-23 23:21] · скачан: 80 раз
Статус: √ проверено
Размер: 1.74 GB
Как cкачать? Как скачать Три мушкетера через торрент | qTorrent

% Раздел Тема Автор DL S | L
Фильмы до 2000 г. [ 3.94 GB ] Три мушкетера / Les trois mousquetaires [1961 исторический Telesync > DVD] [Советская прокатная копия] killermax2013 Скачать
1 | 0
Классика зарубежного кино [ 3.06 GB ] Три мушкетёра / Les Trois Mousquetaires [1961 приключенческий исторический DVDRip] killermax2013 Скачать
1 | 0


>> Регистрируемся здесь <<






Отзывы и комментарии о схеме читаем и пишем здесь: ---> Отзывы и комментарии о схеме

Новые благодарочки в телеграм довольных пользователей:
скриншот   скриншот   скриншот   скриншот   скриншот
    Дорогой пользователь! Огромная просьба, поблагодарите релизера, оцените раздачу и оставьте свои комментарий, если Вы скачали Три мушкетера через торрент бесплатно! Внесите свою лепту в развитие PiratBit!
    Комментировать посты могут только пользователи прошедшие не сложную регистрацию
    Показать сообщения:    

    Три мушкетера через торрент
    Скачать бесплатно Три мушкетера
    Три мушкетера скачать торрент
    Три мушкетера смотреть онлайн
    Cкачать фильм Три мушкетера бесплатно
    Три мушкетера скачать торрент в хорошем качестве
    Три мушкетера смотреть онлайн бесплатно в хорошем качестве


    Вы не можете начинать темы
    Вы не можете отвечать на сообщения
    Вы не можете редактировать свои сообщения
    Вы не можете удалять свои сообщения
    Вы не можете голосовать в опросах
    Вы не можете прикреплять файлы к сообщениям
    Вы можете скачивать файлы