iTunes

1+1

iTunes

мы

iTunes

1

iTunes

Чернобыль

iTunes

Ральф против интернета

Лицензия

ПШазам

Лицензия

Игра престолов

Лицензия

30
pack

ВАЖНО

!!Акция!!

Alien_RageХит недели

RePack

Resident Evil 21

ИГРА 18+

pack

RePack

Metro:Exodus

!!Акция!!

Alien_Rage

RePack

fifa19

RePack

Assassins Creed: Odyssey

RePack

NEED FOR SPEED™ PAYBACK

3 сезон

9 сезон

Бесстыжие 9 сезон

Все сериалы

все сериалы на PB.wtf

RePack

FAR CRY 5
Ребята, катастрофически не хватает 7730р. для оплаты серверов за АВГУСТ (всвязи с блокировками трафик упал в 3 раза), 1-2р., выручайте.
  

Однажды в Америке / Once Upon a Time in America (Серджио Леоне / Sergio Leone) [1984 г, драма, криминал, BDRip (720p)]MVO piratbit.cc

Однажды в Америке через торрент piratbit.cc

Размер: 3.95 GB | Добавлен: 7 лет 1 мес. назад | Торрент скачан:901 раз
Скачать  

26-07-2012 12:06 Однажды в Америке Скачать торрент  

Однажды в Америке / Once Upon a Time in America«As boys, they made a pact to share their fortunes, their loves, their lives. As men, they shared a dream to rise from poverty to power. Forging an empire built on greed, violence and betrayal, their dream would end as a mystery that refuse to die.» Год выпуска: 1984
Страна: США, Италия
Жанр: драма, криминал
Продолжительность: 03:49:20
Перевод: Профессиональный (многоголосый закадровый)
Cубтитры: нет
Режиссер: Серджио Леоне / Sergio Leone
В ролях: Роберт Де Ниро (David 'Noodles' Aaronson), Джеймс Вудс (Maximilian 'Max' Bercovicz), Элизабет МакГоверн (Deborah Gelly), Джо Пеши (Frankie Manoldi), Берт Янг (Joe), Тьюзди Уэлд (Carol), Трит Уильямс (James Conway O'Donnell), Дэнни Айелло (Police Chief Vincent Aiello), Ричард Брайт (Chicken Joe), Джеймс Хейден (Patrick 'Patsy' Goldberg), Уильям Форсайт (Philip 'Cockeye' Stein), Дарлэнн Флюгел (Eve) Описание: В бурные двадцатые годы, когда Америка веселилась под звуки джаза и каждый бродяга мечтал стать миллионером, в трущобах Нью-Йорка встретились несколько отчаянных парней. Убирая с дороги конкурентов, безжалостно карая предателей и нагло проворачивая хитроумные аферы, они стали королями преступного мира золотой эры «сухого закона». Они поклялись отдать жизнь друг за друга, зная, что самое главное для них — это дружба, долг и справедливость — не утопить в реках крови и бездонном океане денег. Спустя много лет судьба жестоко обошлась с легендарными гангстерами, заставив их исполнить свою клятву. Это случилось однажды в Америке…


[font="Georgia"]Качество: .BDRip(720p)
Формат: MKV
Видео кодек: H.264
Аудио кодек: AC3
Видео: x264; 1280х720 (16:9), 23,976 кадр/сек, ~2017 кбит/сек, 0.091 bit/pixel
Аудио 1: Rus: AC3; 48,0 КГц; 448 Кбит/сек; 6ch
Общее
Уникальный идентификатор : 172324866967469781594726858956680216492 (0x81A48FE8C4CEA895974A231E1BE43FAC)
Полное имя : F:\ФИЛЬМЫ ТОРРЕНТА\Odnazdi.v.Amerike.1984.x264.BDRip.720p.[nolimits-team].mkv
Формат : Matroska
Версия формата : Version 2
Размер файла : 3,95 Гбайт
Продолжительность : 3 ч. 49 м.
Режим общего битрейта : Переменный
Общий поток : 2464 Кбит/сек
Название фильма : Rip by victordan 95
Дата кодирования : UTC 2011-01-11 05:44:17
Программа кодирования : mkvmerge v3.2.0 ('Beginnings') built on Feb 12 2010 16:46:17
Библиотека кодирования : libebml v0.7.9 + libmatroska v0.8.1

Видео
Идентификатор : 1
Формат : AVC
Формат/Информация : Advanced Video Codec
Профиль формата : High@L4.1
Параметр CABAC формата : Да
Параметр ReFrames формата : 3 кадра
Параметр GOP формата : M=4, N=24
Идентификатор кодека : V_MPEG4/ISO/AVC
Продолжительность : 3 ч. 49 м.
Вид битрейта : Переменный
Битрейт : 2017 Кбит/сек
Максимальный битрейт : 17,5 Мбит/сек
Ширина : 1280 пикселей
Высота : 720 пикселей
Соотношение сторон : 16:9
Частота кадров : 23,976 кадра/сек
Цветовое пространство : YUV
Субдискретизация насыщенности : 4:2:0
Битовая глубина : 8 бит
Тип развёртки : Прогрессивная
Бит/(Пиксели*Кадры) : 0.091
Размер потока : 3,15 Гбайт (80%)
Библиотека кодирования : x264 core 108 r1788 c764e29
Настройки программы : cabac=1 / ref=4 / deblock=1:0:0 / analyse=0x3:0x113 / me=umh / subme=8 / psy=1 / psy_rd=1.00:0.00 / mixed_ref=1 / me_range=16 / chroma_me=1 / trellis=1 / 8x8dct=1 / cqm=0 / deadzone=21,11 / fast_pskip=1 / chroma_qp_offset=-2 / threads=3 / sliced_threads=0 / slices=4 / nr=0 / decimate=1 / interlaced=0 / constrained_intra=0 / bframes=3 / b_pyramid=1 / b_adapt=1 / b_bias=0 / direct=3 / weightb=1 / open_gop=0 / weightp=0 / keyint=24 / keyint_min=1 / scenecut=40 / intra_refresh=0 / rc_lookahead=24 / rc=abr / mbtree=1 / bitrate=2017 / ratetol=1.0 / qcomp=0.60 / qpmin=0 / qpmax=51 / qpstep=4 / vbv_maxrate=17500 / vbv_bufsize=14500 / ip_ratio=1.10 / aq=1:1.00 / nal_hrd=vbr
Язык : English

Аудио
Идентификатор : 2
Формат : AC-3
Формат/Информация : Audio Coding 3
Расширение режима : CM (complete main)
Идентификатор кодека : A_AC3
Продолжительность : 3 ч. 49 м.
Вид битрейта : Постоянный
Битрейт : 448 Кбит/сек
Каналы : 6 каналов
Расположение каналов : Front: L C R, Side: L R, LFE
Частота : 48,0 КГц
Битовая глубина : 16 бит
Метод сжатия : С потерями
Размер потока : 735 Мбайт (18%)
Заголовок : MVO
Язык : Russian
piratbit.cc



Скачать Однажды в Америке через торрент http://s002.youpic.su/pictures/1343246400/455bf059af8c82d2069136e3bcdd471b.png Скачать фильм Однажды в Америке через торрент бесплантно в хорошем качестве Описание: В бурные двадцатые годы, когда Америка веселилась под звуки джаза и каждый бродяга мечтал стать миллионером, в трущобах Нью-Йорка ... 9.8 10 23
Info! Золотая раздача, скачанное не засчитывается.
Торрент: Зарегистрирован [2012-07-26 12:06] · скачан: 901 раз
Статус: √ проверено
Размер: 3.95 GB
Как cкачать? Как скачать Однажды в Америке через торрент | qTorrent

% Раздел Тема Автор DL S | L
Фильмы [HD 720p, 1080p] (Хороший звук DUB, MVO) [ 23.09 GB ] Однажды в Америке / Once Upon a Time in America [1983 BDRip 1080p MVO AVO] _denis_100 Скачать
1 | 0
Фильмы (Blu-ray, BD-Remux, HDDVD) [ 41.25 GB ] Однажды в Америке / Once Upon a Time in America [1984 ьная BDRemux 1080p] MVO Ворон Скачать
1 | 0


>> Регистрируемся здесь <<






Отзывы и комментарии о схеме читаем и пишем здесь: ---> Отзывы и комментарии о схеме

Новые благодарочки в телеграм довольных пользователей:
скриншот   скриншот   скриншот   скриншот   скриншот

26-07-2012 15:03 Однажды в Америке Скачать торрент  

фильм долгий, но оно того стоит. очень жизненноpiratbit.cc



26-07-2012 15:17 Однажды в Америке Скачать торрент  

хороший фильмpiratbit.cc



26-07-2012 16:28 Однажды в Америке Скачать торрент  

Лучший фильм, который я смотрел!piratbit.cc



26-07-2012 16:32 Однажды в Америке Скачать торрент  

Охрененный фильм.спасибо.piratbit.cc



26-07-2012 20:03 Однажды в Америке Скачать торрент  

Спасибо за кульное кино )piratbit.cc



27-07-2012 01:11 Однажды в Америке Скачать торрент  

Мощный фильм!!!!piratbit.cc



18-03-2013 12:36 Однажды в Америке Скачать торрент  

Главное чтобы вместо Лапша главного героя Бульон не называли. А то как то уже ни так смотрится фильм)piratbit.cc



29-03-2013 23:16 Однажды в Америке Скачать торрент  

Очень хочу посмотреть, дайте скорости, очень прошу!piratbit.cc



    Дорогой пользователь! Огромная просьба, поблагодарите релизера, оцените раздачу и оставьте свои комментарий, если Вы скачали Однажды в Америке через торрент бесплатно! Внесите свою лепту в развитие PiratBit!
    Комментировать посты могут только пользователи прошедшие не сложную регистрацию
    Показать сообщения:    

    Однажды в Америке через торрент
    Скачать бесплатно Однажды в Америке
    Однажды в Америке скачать торрент
    Однажды в Америке смотреть онлайн
    Cкачать фильм Однажды в Америке бесплатно
    Однажды в Америке скачать торрент в хорошем качестве
    Однажды в Америке смотреть онлайн бесплатно в хорошем качестве


    Вы не можете начинать темы
    Вы не можете отвечать на сообщения
    Вы не можете редактировать свои сообщения
    Вы не можете удалять свои сообщения
    Вы не можете голосовать в опросах
    Вы не можете прикреплять файлы к сообщениям
    Вы можете скачивать файлы