iTunes

1+1

iTunes

мы

iTunes

1

1 сезон

Чернобыль

1 сезон

Ральф против интернета

Лицензия

ПШазам

8 сезон

Игра престолов

Лицензия

30
pack

ВАЖНО

!!Акция!!

Alien_RageХит недели

RePack

Resident Evil 21

ИГРА 18+

pack

RePack

Metro:Exodus

!!Акция!!

Alien_Rage

RePack

fifa19

RePack

Assassins Creed: Odyssey

RePack

NEED FOR SPEED™ PAYBACK

3 сезон

9 сезон

Бесстыжие 9 сезон

Все сериалы

все сериалы на PB.wtf

RePack

FAR CRY 5
Ребята, катастрофически не хватает 2730р. для оплаты серверов за ИЮНЬ (всвязи с блокировками трафик упал в 3 раза), 1-2р., выручайте.
  

Железная маска / Le masque de fer (Анри Декуэн) [1962 г., приключения, DVDRip, DUB (лицензия)] piratbit.cc

Железная маска через торрент piratbit.cc

Размер: 2.05 GB | Добавлен: 6 лет 11 мес. назад | Торрент скачан:23 раза
Скачать  

03-08-2012 17:52 Железная маска Скачать торрент  

Железная маска / Le masque de fer

Год выпуска: 1962
Страна: Франция, Италия
Жанр: приключения
Продолжительность: 02:02:48
Перевод: Дубляж (Лицензия)

Режиссер: Анри Декуэн
Сценарий: Лоран Девриес, Жеральд Девриес, Сесиль Сен-Лоран

Премьера в мире: 26 октября 1962

IMDb: 6.00 (182)
Кинопоиск: 7.576 323

В ролях: Жан Маре, Сильва Кошина, Жан-Франсуа Порон, Жизель Паскаль, Филипп Лемэр, Ноэль Роквер, Жан Рошфор, Клодин Оже, Жермен Монтеро, Энрико Мария Салерно

Описание: В крепости на далеком острове где-то в Средиземном море томится анонимный пленник. Под страхом смертной казни никто не смеет видеть узника без маски, скрывающей его лицо.

А на другом конце воюющей Европы, в Париже, сильнейшая лихорадка привела на грань жизни и смерти Его Величество Людовика XIV, молодого короля Франции.

Под угрозой подписание мирного договора с Испанией, главным условием которого должен стать союз Людовика XIV и Инфанты Испанской. Не будет короля — не будет выгодной свадьбы и долгожданного мира.

В этот драматический момент интриган и умница кардинал Мазарини поручает капитану ДАртаньяну весьма щекотливое дело — доставить в Париж живым и невредимым таинственного пленника — брата-близнеца короля. Задание опасное и непростое, но капитан королевских мушкетеров азартен, отважен и молод душой…

Качество: DVDRip
Формат: AVI
Видео кодек: XviD
Аудио кодек: MP3
Видео: 704x304 (2.32:1), 25 fps, XviD build 46 ~2290 kbps avg, 0.43 bit/pixel
Аудио#1: 48 kHz, MPEG Layer 3, 2 ch, ~96.00 kbps avg










Дюма зашевелился в гробу…
Александр Дюма — культовый писатель, как бы его назвали сейчас. Его «Три мушкетера» стали культовым романом, которым зачитываются уже сотни лет. Но далеко не все, кто читал «Трех мушкетеров», читали продолжения — «Двадцать лет спустя» и «Виконт Де Бранжелон», хотя эти книги могут даже показаться некоторым интереснее начала. Но не о этом, а о фильме «Железная маска», который вытек из «Виконта Де Бранжелона», насколько я помню.

Эта история пользуется также большой популярностью, ее довольно часто экранизируют. Уже было много попыток, но этот фильм самая лучшая экранизация истории.

Почему фильм так хорош — да потому, что в фильме почти все на высшем уровне. И актерская игра, и красивые пейзажи, и красивые женщины, и красивые декорации… В общем, фильм почти идеален, но уж сильно отступили от литературного оригинала и этим немного испортили историю. Что самое обидное — что в филмье нет Партоса, Арамиса и Атоса, а без них это уже другая история и смотрится не с таким восхищением, как читается книга. Но, что еще в фильме очень порадовало — наличие отличного, остроумного и совсем не глупого юмора.

Все самое хорошее описал, хоть и очень кратко, но лучше увидеть, чем услышать. И все же сильно отступили кинематографисты от книги, до такой степени, что придумали отдельную историю и смотрится это не совсем приятно. Лучше прочитать книгу.
В СССР- 26.7 млн зрителей

Общее
Полное имя : H:torrentZheleznaya.maska.1962.XviD.DVDRip.сторонний ресурс.avi
Формат : AVI
Формат/Информация : Audio Video Interleave
Профиль формата : OpenDML
Размер файла : 2,05 Гбайт
Продолжительность : 2 ч. 2 м.
Общий поток : 2393 Кбит/сек
Программа кодирования : VirtualDubMod 1.5.4.1 (build 2178/release)
Библиотека кодирования : VirtualDubMod build 2178/release

Видео
Идентификатор : 0
Формат : MPEG-4 Visual
Профиль формата : Advanced Simple@L5
Параметр BVOP формата : 1
Параметр QPel формата : Нет
Параметр GMC формата : Без точки перехода
Параметр матрицы формата : Выборочная
Идентификатор кодека : XVID
Идентификатор кодека/Подсказка : XviD
Продолжительность : 2 ч. 2 м.
Битрейт : 2288 Кбит/сек
Ширина : 704 пикс.
Высота : 304 пикс.
Соотношение сторон : 2,35:1
Частота кадров : 25,000 кадр/сек
Цветовое пространство : YUV
Подвыборка цветности : 4:2:0
Битовая глубина : 8 бит
Тип развёртки : Прогрессивная
Метод сжатия : С потерями
Бит/(Пиксели*Кадры) : 0.428
Размер потока : 1,96 Гбайт (96%)
Библиотека кодирования : XviD 1.1.2 (UTC 2006-11-01)

Аудио
Идентификатор : 1
Формат : MPEG Audio
Версия формата : Version 1
Профиль формата : Layer 3
Режим : Joint stereo
Расширение режима : Intensity Stereo + MS Stereo
Идентификатор кодека : 55
Идентификатор кодека/Подсказка : MP3
Продолжительность : 2 ч. 2 м.
Вид битрейта : Постоянный
Битрейт : 96,0 Кбит/сек
Каналы : 2 канала
Частота : 48,0 КГц
Метод сжатия : С потерями
Размер потока : 84,3 Мбайт (4%)
Выравнивание : Разделение по промежуткам
Продолжительность промежутка : 80 мс. (2,00 видеокадра)
Время предзагрузки промежутка : 500 ms

piratbit.cc



Скачать Железная маска через торрент http://pic.kartinco.top/images/1/7emli8dnfk.jpg Скачать фильм Железная маска через торрент бесплантно в хорошем качестве Описание: В крепости на далеком острове где-то в Средиземном море томится анонимный пленник. Под страхом смертной казни никто не смеет ... 10 10 1
Info! Золотая раздача, скачанное не засчитывается.
Торрент: Зарегистрирован [2012-08-03 17:52] · скачан: 23 раз
Статус: √ проверено
Размер: 2.05 GB
Как cкачать? Как скачать Железная маска через торрент | qTorrent

% Раздел Тема Автор DL S | L
Фильмы [HD 720p, 1080p] (Хороший звук DUB, MVO) [ 4.8 GB ] Железная маска / Le Masque de Fer [1962 BDRip 720p by msltel] DUB MVO DVO msltel Скачать
1 | 0
Фильмы [HD 720p, 1080p] (Хороший звук DUB, MVO) [ 12.47 GB ] Железная маска / Le Masque de Fer [1962 BDRip 1080p by msltel] DUB MVO DVO msltel Скачать
1 | 0
Классика зарубежного кино [ 2.05 GB ] Железная маска / Le Masque de Fer [1962 костюмированный экранизация костюмно-приключенческий DVDRip ] jump88 Скачать
1 | 0


>> Регистрируемся здесь <<






Отзывы и комментарии о схеме читаем и пишем здесь: ---> Отзывы и комментарии о схеме

Новые благодарочки в телеграм довольных пользователей:
скриншот   скриншот   скриншот   скриншот   скриншот

03-08-2012 19:07 Железная маска Скачать торрент  

ПИШИТЕ что ВЫ хотели-бы посмотреть из классики?!!piratbit.cc



    Дорогой пользователь! Огромная просьба, поблагодарите релизера, оцените раздачу и оставьте свои комментарий, если Вы скачали Железная маска через торрент бесплатно! Внесите свою лепту в развитие PiratBit!
    Комментировать посты могут только пользователи прошедшие не сложную регистрацию
    Показать сообщения:    

    Железная маска через торрент
    Скачать бесплатно Железная маска
    Железная маска скачать торрент
    Железная маска смотреть онлайн
    Cкачать фильм Железная маска бесплатно
    Железная маска скачать торрент в хорошем качестве
    Железная маска смотреть онлайн бесплатно в хорошем качестве


    Вы не можете начинать темы
    Вы не можете отвечать на сообщения
    Вы не можете редактировать свои сообщения
    Вы не можете удалять свои сообщения
    Вы не можете голосовать в опросах
    Вы не можете прикреплять файлы к сообщениям
    Вы можете скачивать файлы