iTunes

1+1

iTunes

мы

iTunes

1

iTunes

Чернобыль

iTunes

Ральф против интернета

Лицензия

ПШазам

Лицензия

Игра престолов

Лицензия

30
pack

ВАЖНО

!!Акция!!

Alien_RageХит недели

RePack

Resident Evil 21

ИГРА 18+

pack

RePack

Metro:Exodus

!!Акция!!

Alien_Rage

RePack

fifa19

RePack

Assassins Creed: Odyssey

RePack

NEED FOR SPEED™ PAYBACK

3 сезон

9 сезон

Бесстыжие 9 сезон

Все сериалы

все сериалы на PB.wtf

RePack

FAR CRY 5
Ребята, катастрофически не хватает 7730р. для оплаты серверов за АВГУСТ (всвязи с блокировками трафик упал в 3 раза), 1-2р., выручайте.
  

Парижские тайны / Les Mysteres De Paris (Андре Юнебелль) [1962 г., боевик, приключения, DVDRip, DUB (лицензия)] piratbit.cc

Парижские тайны через торрент piratbit.cc

Размер: 1.46 GB | Добавлен: 7 лет 1 мес. назад | Торрент скачан:6 раз
Скачать  

04-08-2012 04:46 Парижские тайны Скачать торрент  

Парижские тайны / Les Mysteres De Paris

Год выпуска: 1962
Страна: Франция, Италия
Жанр: боевик, приключения
Продолжительность: 01:41:53
Перевод: Дубляж (Лицензия)

Режиссер: Андре Юнебелль
Продюссер: Пол Кадеак
Сценарий: Диего Фаббри, Пьер Фуко, Жан Ален

Премьера в мире: 4 октября 1962

IMDb: 6.10 (123)
Кинопоиск: 7.338 204

В ролях: Жан Маре, Дани Робен, Джилл Хаворт, Раймон Пеллегрен, Пьер Монди, Ален Декок, Жан Ле Пулен, Ноэль Роквер, Рене Гардес, Ги Делорм

Описание: Маркиз Рудольф — умен, отважен, красив, азартен и великодушен. Он любит женщин, уважает дуэли и часто заключает пари. Одна из таких «невинных» великосветских «забав» приводит к смерти простого горожанина, вдова которого вскоре умирает в нищете, а красавица-дочь исчезает в лабиринте криминальных кварталов французской столицы.

Чувствуя себя виноватым в случившемся с семейством, отважный маркиз клянется найти и спасти девушку. Он одевается простолюдином и отправляется в путь. Все глубже и глубже погружается мужественный Рудольф в «чрево Парижа», полное мрачных тайн, странных сюрпризов и изощренных интриг.

Доп. информация: Старое доброе французское кино
Иногда, правда, увы, очень редко, случайно натыкаешься на такие прекрасные фильмы, которые показывают по телевизору. Никогда не слышала об этом фильме, но посмотрела его с превеликим удовольствием!

Великолепный приключенческий фильм с красивыми декорациями, красивыми актерами, захватывающим сюжетом и неповторимой французской атмосферой! Искренне переживала за героя Маре, когда он попадал в разного рода переделки! Сцены драк сняты в старом стиле, очень мило, но зрелищно. Продумана каждая деталь, будь то красный платок на шее Рудольфа, интерьеры, случайные персонажи и так называемая массовка — парижские зеваки, высший свет на балах, персонажи в ночлежках (даже как-то «На дне» вспоминается, просто поразительное сходство!)

Фильм погружает в атмосферу старого Парижа, в интриги и козни представителей высшего света, в мир бедноты — и мир роскоши. Красивая история, что и говорить. Потрясающий Рудольф в исполнении Маре, мужественный, отважный, благородный! Его верные друзья и коварные недруги тоже на высоте.

Не стоит сравнивать этот фильм с современными, спецэффектов тогда не было, но фильм снят с душой и любовью, это чувствуется в каждом кадре.

Очень рекомендую любителям старого кино и поклонникам Маре в частности.
Занимает 69-е место по посещаемости среди зарубежных фильмов в советском кинопрокате- 37.4 млн. зрителей.

Качество: DVDRip
Формат: AVI
Видео кодек: XviD
Аудио кодек: AC3
Видео: 720x304 (2.37:1), 25 fps, XviD build 64 ~1651 kbps avg, 0.30 bit/pixel
Аудио#1: 48 kHz, AC3 Dolby Digital, 2/0 (L,R) ch, ~192.00 kbps avg (Советский дубляж)
Аудио#2: 48 kHz, AC3 Dolby Digital, 2/0 (L,R) ch, ~192.00 kbps avg (Французский)





Общее
Полное имя : H:torrentParizhskie.tajny.1962.XviD.DVDRip.сторонний ресурс.avi
Формат : AVI
Формат/Информация : Audio Video Interleave
Размер файла : 1,46 Гбайт
Продолжительность : 1 ч. 41 м.
Общий поток : 2051 Кбит/сек
Название фильма : Parizhskie.tajny.1962.XviD.DVDRip.AC3_SergV
Программа кодирования : VirtualDubMod 1.5.10.3 | www.virtualdub-fr.org || (build 2550/release)
Примечание : Рип от SergV

Видео
Идентификатор : 0
Формат : MPEG-4 Visual
Профиль формата : Advanced Simple@L5
Параметр BVOP формата : 3
Параметр QPel формата : Нет
Параметр GMC формата : Без точки перехода
Параметр матрицы формата : Default (MPEG)
Идентификатор кодека : XVID
Идентификатор кодека/Подсказка : XviD
Продолжительность : 1 ч. 41 м.
Битрейт : 1653 Кбит/сек
Ширина : 720 пикс.
Высота : 304 пикс.
Соотношение сторон : 2,35:1
Частота кадров : 25,000 кадр/сек
Цветовое пространство : YUV
Подвыборка цветности : 4:2:0
Битовая глубина : 8 бит
Тип развёртки : Прогрессивная
Метод сжатия : С потерями
Бит/(Пиксели*Кадры) : 0.302
Размер потока : 1,18 Гбайт (81%)
Библиотека кодирования : XviD 64

Аудио #1
Идентификатор : 1
Формат : AC-3
Формат/Информация : Audio Coding 3
Расширение режима : CM (complete main)
Идентификатор кодека : 2000
Продолжительность : 1 ч. 41 м.
Вид битрейта : Постоянный
Битрейт : 192 Кбит/сек
Каналы : 2 канала
Расположение каналов : Front: L R
Частота : 48,0 КГц
Битовая глубина : 16 бит
Метод сжатия : С потерями
Размер потока : 140 Мбайт (9%)
Выравнивание : Разделение по промежуткам
Продолжительность промежутка : 40 мс. (1,00 видеокадр)
Время предзагрузки промежутка : 500 ms

Аудио #2
Идентификатор : 2
Формат : AC-3
Формат/Информация : Audio Coding 3
Расширение режима : CM (complete main)
Идентификатор кодека : 2000
Продолжительность : 1 ч. 41 м.
Вид битрейта : Постоянный
Битрейт : 192 Кбит/сек
Каналы : 2 канала
Расположение каналов : Front: L R
Частота : 48,0 КГц
Битовая глубина : 16 бит
Метод сжатия : С потерями
Размер потока : 140 Мбайт (9%)
Выравнивание : Разделение по промежуткам
Продолжительность промежутка : 40 мс. (1,00 видеокадр)
Время предзагрузки промежутка : 500 ms

piratbit.cc



Скачать Парижские тайны через торрент http://pic.kartinco.top/images/1/fx6xb3s8vw.jpg Скачать фильм Парижские тайны через торрент бесплантно в хорошем качестве Описание: Маркиз Рудольф — умен, отважен, красив, азартен и великодушен. Он любит женщин, уважает дуэли и часто заключает пари. Одна из ... 10 10 3
Info! Золотая раздача, скачанное не засчитывается.
Торрент: Зарегистрирован [2012-08-04 04:46] · скачан: 6 раз
Статус: √ проверено
Размер: 1.46 GB
Как cкачать? Как скачать Парижские тайны через торрент | qTorrent

% Раздел Тема Автор DL S | L
Фильмы [HD 720p, 1080p] (Хороший звук DUB, MVO) [ 4.12 GB ] Парижские тайны / Les mysteres de Paris [1962 BDRip 720p by msltel] DUB 3 x MVO msltel Скачать
1 | 0
Фильмы [HD 720p, 1080p] (Хороший звук DUB, MVO) [ 10.45 GB ] Парижские тайны / Les mysteres de Paris [1962 BDRip 1080p by msltel] DUB 3 x MVO msltel Скачать
1 | 0


>> Регистрируемся здесь <<






Отзывы и комментарии о схеме читаем и пишем здесь: ---> Отзывы и комментарии о схеме

Новые благодарочки в телеграм довольных пользователей:
скриншот   скриншот   скриншот   скриншот   скриншот
    Дорогой пользователь! Огромная просьба, поблагодарите релизера, оцените раздачу и оставьте свои комментарий, если Вы скачали Парижские тайны через торрент бесплатно! Внесите свою лепту в развитие PiratBit!
    Комментировать посты могут только пользователи прошедшие не сложную регистрацию
    Показать сообщения:    

    Парижские тайны через торрент
    Скачать бесплатно Парижские тайны
    Парижские тайны скачать торрент
    Парижские тайны смотреть онлайн
    Cкачать фильм Парижские тайны бесплатно
    Парижские тайны скачать торрент в хорошем качестве
    Парижские тайны смотреть онлайн бесплатно в хорошем качестве


    Вы не можете начинать темы
    Вы не можете отвечать на сообщения
    Вы не можете редактировать свои сообщения
    Вы не можете удалять свои сообщения
    Вы не можете голосовать в опросах
    Вы не можете прикреплять файлы к сообщениям
    Вы можете скачивать файлы