iTunes

1+1

iTunes

мы

iTunes

1

iTunes

Чернобыль

iTunes

Ральф против интернета

Лицензия

ПШазам

Лицензия

Игра престолов

Лицензия

30
pack

ВАЖНО

!!Акция!!

Alien_RageХит недели

RePack

Resident Evil 21

ИГРА 18+

pack

RePack

Metro:Exodus

!!Акция!!

Alien_Rage

RePack

fifa19

RePack

Assassins Creed: Odyssey

RePack

NEED FOR SPEED™ PAYBACK

3 сезон

9 сезон

Бесстыжие 9 сезон

Все сериалы

все сериалы на PB.wtf

RePack

FAR CRY 5
Ребята, катастрофически не хватает 7730р. для оплаты серверов за АВГУСТ (всвязи с блокировками трафик упал в 3 раза), 1-2р., выручайте.
  

Дикое сердце / Corazón salvaje (Тито Дависон) [1968 г., драма, мелодрама, приключения, DVDRip, DUB, лицензия] piratbit.cc

Дикое сердце через торрент piratbit.cc

Размер: 1.23 GB | Добавлен: 7 лет назад | Торрент скачан:19 раз
Скачать  

09-09-2012 20:43 Дикое сердце Скачать торрент  

Дикое сердце / Corazón salvaje

Год выпуска: 1968
Страна: Мексика
Жанр: драма, мелодрама, приключения
Продолжительность: 01:39:34
Перевод: Дубляж, Лицензия

Режиссер: Тито Дависон
Продюссер: Фелипе Субервьелле
Сценарий: Эдмундо Баэс, Тито Дависон, Каридад Браво Адамс

Премьера в мире: 22 августа 1968

IMDb: 5.00 (42)
Кинопоиск:7.186 110

В ролях: Хулио Алеман, Анхелика Мария, Мануэль Хиль, Беатриз Баз, Мигель Масия, Хосе Бавьера, Сара Гуаш, Сандра Чавез, Рафаэль Льямас, Антонио Браво

Описание: Действие фильма происходит в XIX веке в Пуэрто-Рико. Побочный сын богатого дворянина контрабандист по прозвищу Хуан Дьявол влюбляется в Айме, невесту своего сводного брата Ренато и Айме становится его любовницей.

Во время свадьбы Ренато обвиняет невесту в измене, но Айме ловко переводит подозрение на свою сестру, послушницу монастыря Монику. Чтобы спасти семью от голода и избавить от унижения Ренато, которого она давно любит, Моника соглашается на фиктивный брак с Хуаном…

Доп. информация: В СССР зрители- 41.6 млн

Качество: DVDRip
Формат: AVI
Видео кодек: XviD
Аудио кодек: MP3
Видео: 688x560 (1.23:1), 25 fps, XviD MPEG-4 ~1499 kbps avg, 0.16 bit/pixel
Аудио#1: 44.100 kHz, MPEG Layer 3, 2 ch, ~128.00 kbps avg ( Советский дубляж)
Аудио#2: 44.100 kHz, MPEG Layer 3, 2 ch, ~128.00 kbps avg (Испанский оригинал)










Общее
Полное имя : D:torrentDikoe_serdtse_Kinoman_1968.avi
Формат : AVI
Формат/Информация : Audio Video Interleave
Размер файла : 1,23 Гбайт
Продолжительность : 1 ч. 39 м.
Общий поток : 1770 Кбит/сек
Название фильма : Дикое сердце
Режиссёр : chizhik
Жанр : Melodrama
Программа кодирования : VirtualDubMod 1.5.10.2 (build 2540/release)
Формат оригинала/Имя : Movie
Правообладатель : lehachuev
Примечание : Ripped for www.fenixclub.com & www.torrents.ru

Видео
Идентификатор : 0
Формат : MPEG-4 Visual
Профиль формата : Simple@L3
Параметр BVOP формата : Да
Параметр QPel формата : Нет
Параметр GMC формата : Без точки перехода
Параметр матрицы формата : Default (H.263)
Идентификатор кодека : XVID
Идентификатор кодека/Подсказка : XviD
Продолжительность : 1 ч. 39 м.
Битрейт : 1500 Кбит/сек
Ширина : 688 пикселей
Высота : 560 пикселей
Соотношение сторон : 1,229
Частота кадров : 25,000 кадров/сек
Цветовое пространство : YUV
Субдискретизация насыщенности : 4:2:0
Битовая глубина : 8 бит
Тип развёртки : Прогрессивная
Метод сжатия : С потерями
Бит/(Пиксели*Кадры) : 0.156
Размер потока : 1,04 Гбайт (85%)

Аудио #1
Идентификатор : 1
Формат : MPEG Audio
Версия формата : Version 1
Профиль формата : Layer 3
Идентификатор кодека : 55
Идентификатор кодека/Подсказка : MP3
Продолжительность : 1 ч. 39 м.
Вид битрейта : Постоянный
Битрейт : 128 Кбит/сек
Каналы : 2 канала
Частота : 44,1 КГц
Метод сжатия : С потерями
Размер потока : 91,2 Мбайт (7%)
Выравнивание : Разделение по промежуткам
Продолжительность промежутка : 40 мс. (1,00 видеокадр)
Время предзагрузки промежутка : 500 мс.

Аудио #2
Идентификатор : 2
Формат : MPEG Audio
Версия формата : Version 1
Профиль формата : Layer 3
Режим : Joint stereo
Расширение режима : MS Stereo
Идентификатор кодека : 55
Идентификатор кодека/Подсказка : MP3
Продолжительность : 1 ч. 39 м.
Вид битрейта : Постоянный
Битрейт : 128 Кбит/сек
Каналы : 2 канала
Частота : 44,1 КГц
Метод сжатия : С потерями
Размер потока : 91,2 Мбайт (7%)
Выравнивание : Разделение по промежуткам
Продолжительность промежутка : 40 мс. (1,00 видеокадр)
Время предзагрузки промежутка : 500 мс.
Библиотека кодирования : LAME3.97

piratbit.cc



Скачать Дикое сердце через торрент http://pic.kartinco.top/images/1/zpvsjc3uhk.jpg Скачать фильм Дикое сердце через торрент бесплантно в хорошем качестве Описание: Действие фильма происходит в XIX веке в Пуэрто-Рико. Побочный сын богатого дворянина контрабандист по прозвищу Хуан Дьявол ... 9.5 10 2
Info! Золотая раздача, скачанное не засчитывается.
Торрент: Зарегистрирован [2012-09-09 20:43] · скачан: 19 раз
Статус: √ проверено
Размер: 1.23 GB
Как cкачать? Как скачать Дикое сердце через торрент | qTorrent


>> Регистрируемся здесь <<






Отзывы и комментарии о схеме читаем и пишем здесь: ---> Отзывы и комментарии о схеме

Новые благодарочки в телеграм довольных пользователей:
скриншот   скриншот   скриншот   скриншот   скриншот
    Дорогой пользователь! Огромная просьба, поблагодарите релизера, оцените раздачу и оставьте свои комментарий, если Вы скачали Дикое сердце через торрент бесплатно! Внесите свою лепту в развитие PiratBit!
    Комментировать посты могут только пользователи прошедшие не сложную регистрацию
    Показать сообщения:    

    Дикое сердце через торрент
    Скачать бесплатно Дикое сердце
    Дикое сердце скачать торрент
    Дикое сердце смотреть онлайн
    Cкачать фильм Дикое сердце бесплатно
    Дикое сердце скачать торрент в хорошем качестве
    Дикое сердце смотреть онлайн бесплатно в хорошем качестве


    Вы не можете начинать темы
    Вы не можете отвечать на сообщения
    Вы не можете редактировать свои сообщения
    Вы не можете удалять свои сообщения
    Вы не можете голосовать в опросах
    Вы не можете прикреплять файлы к сообщениям
    Вы можете скачивать файлы