iTunes

1+1

iTunes

мы

iTunes

1

iTunes

Чернобыль

iTunes

Ральф против интернета

Лицензия

ПШазам

Лицензия

Игра престолов

Лицензия

30
pack

ВАЖНО

!!Акция!!

Alien_RageХит недели

RePack

Resident Evil 21

ИГРА 18+

pack

RePack

Metro:Exodus

!!Акция!!

Alien_Rage

RePack

fifa19

RePack

Assassins Creed: Odyssey

RePack

NEED FOR SPEED™ PAYBACK

3 сезон

9 сезон

Бесстыжие 9 сезон

Все сериалы

все сериалы на PB.wtf

RePack

FAR CRY 5
Ребята, катастрофически не хватает 7730р. для оплаты серверов за АВГУСТ (всвязи с блокировками трафик упал в 3 раза), 1-2р., выручайте.
  

Собор Парижской Богоматери / Notre-Dame de Paris (Жан Деланнуа) [1956 г., драма, история, DVDRip, DUB + Оригинал] piratbit.cc

Собор Парижской Богоматери через торрент piratbit.cc

Размер: 2.18 GB | Добавлен: 6 лет 11 мес. назад | Торрент скачан:68 раз
Скачать  

30-09-2012 06:48 Собор Парижской Богоматери Скачать торрент  

Собор Парижской Богоматери / Notre-Dame de Paris

Год выпуска: 1956
Страна: Франция, Италия
Жанр: драма, история
Продолжительность: 01:54:45
Перевод: Дубляж + Оригинал
Тип релиза: Лицензия

Режиссер: Жан Деланнуа
Продюссер: Раймон Хаким, Робер Хаким
Сценарий: Жан Оренч, Жак Превер, Бен Хект

Премьера в мире: 19 декабря 1956

MPAA: PG - рекомендуется присутствие родителей
IMDb: 6.60 (1 016)
Кинопоиск: 7.602 719

В ролях: Джина Лоллобриджида, Энтони Куинн, Жан Дане, Ален Кюни, Робер Ирш, Даниэль Дюмон, Филипп Клэй, Морис Сарфати, Жан Тиссье, Валентайн Тессьер, Жак Иллинг, Жак Дюфийо, Роже Блен, Марианн Освальд, Роланд Байли, Камил Герени, Роберт Ломбард, Альбер Реми, Юбер де Лапаран, Борис Виан

Описание: Классическая экранизация романа Виктора Гюго отличается прежде всего декорациями и скрупулезным воссозданием эпохи царствования Людовика ХI, пышными костюмами и проникновенной игрой Джины Лоллобриджиды в роли Эсмеральды в апогее своей красоты и славы, Энтони Куинна в роли Квазимодо и Алена Кюни в роли Клода Фролло, влюбленного в Эсмеральду безумной и безнадежной любовью.….
Прекрасная постановка, драма о том времени, когда любить, жить, веселиться или плакать указывала церковь во главе с этой самой инквизицией. Вот и шутки простонародья были над теми, кого за что-то наказывали, вешали, били кнутом. Времена поменялись — а шутки остались. Может что-то не поменялось?

В фильме точно передана атмосфера того времени, ровное повествование о драме, разыгравшейся вокруг цыганки Эсмеральды. Время хочу вам сказать мистическое — только посмотрите на фигуры охраняющие собор. Но мистика была навеяна церковью, желающей властвовать и властью, слабой перед церковью. Инквизиция доказывала свою правоту изобретая орудия пыток, истребляя красивый женщин, тем самым убивая свою страсть к ним. Как можно отказаться от любви, считая себя служителем Бога, когда Бог нам даровал любовь.

Какие разные мужчины восхищались Эсмеральдой. Первый — поэт-неудачник. Находясь на виселице и думая как ухватиться за жизнь, он получает незаслуженный подарок — в жены красавицу-цыганку. Вот такие перепады бывают в жизни. А парень то все перед этим перепробовал — от солдата до поэта. Что бы делать, лишь бы ничего не делать.

Вторым поклонником Эсмеральды был Епископ, он же судья, он же алхимик. Он запрещает, осуждает любовь к Эсмеральде всем, ведь он сам горит страстью. Для чего деньги, Влacть, если ты лишил себя права любить. И он стает тенью, которая наблюдает за ней, готовый на все.

Право на любовь Эсмеральды получает капитан, бравый красавец, добивающийся просто любовных утех. Она ждет его любви, а он играет в опасную игру, ведь за цыганкой ходит тень.

И еще здесь есть истерзанный, наказываемый всеми горбун, которому Эсмеральда дает пить, когда он так жаждет попить. Это добро он считает самым дорогим …Бедный, тихий горбун, кормящий голубей, служащий при храме. Наверное его вид заставил кого-то написать что фильм — ужасы. Эсмеральда поняла, что из этих людей по-настоящему ее любит только один, хотя она слепо любит другого. Она говорит Квазимодо, что если бы его сердце было в груди того, кого она любит — жизнь была бы прекрасна.

Кто пойдет против всех чтобы спасти героиню, не желая ее любви, а желая ей служить? Тот кто ее любит чистым сердцем.

Это прекрасная драма.

Качество: DVDRip
Формат: AVI
Видео кодек: XviD
Аудио кодек: AC3
Видео: 704x304 (2.32:1), 25 fps, XviD MPEG-4 ~1822 kbps avg, 0.34 bit/pixel
Аудио#1: 48 kHz, AC3 Dolby Digital, 2/0 (L,R) ch, ~448.00 kbps avg ( Советский дубляж)
Аудио#2: 48 kHz, AC3 Dolby Digital, 2/0 (L,R) ch, ~448.00 kbps avg ( Оригинал-Французский)










Общее
Полное имя : D:torrentSobor.Parizhskoi.Bogomateri.1956.DVDRip.сторонний ресурс.avi
Формат : AVI
Формат/Информация : Audio Video Interleave
Профиль формата : OpenDML
Размер файла : 2,18 Гбайт
Продолжительность : 1 ч. 54 м.
Общий поток : 2725 Кбит/сек
Название фильма : The Hunchback of Notre Dame
Режиссёр : Rip by MC
Жанр : Drama/History/Romance
Программа кодирования : VirtualDubMod 1.5.4.1 (build 2178/release)
Формат оригинала/Имя : Movie

Видео
Идентификатор : 0
Формат : MPEG-4 Visual
Профиль формата : Advanced Simple@L5
Параметр BVOP формата : 2
Параметр QPel формата : Нет
Параметр GMC формата : Без точки перехода
Параметр матрицы формата : Default (MPEG)
Режим смешивания : Сжатый битовый поток
Идентификатор кодека : XVID
Идентификатор кодека/Подсказка : XviD
Продолжительность : 1 ч. 54 м.
Битрейт : 1811 Кбит/сек
Ширина : 704 пикселя
Высота : 304 пикселя
Соотношение сторон : 2,35:1
Частота кадров : 25,000 кадров/сек
Цветовое пространство : YUV
Субдискретизация насыщенности : 4:2:0
Битовая глубина : 8 бит
Тип развёртки : Прогрессивная
Метод сжатия : С потерями
Бит/(Пиксели*Кадры) : 0.338
Размер потока : 1,45 Гбайт (66%)
Библиотека кодирования : XviD 1.2.1 (UTC 2008-12-04)

Аудио #1
Идентификатор : 1
Формат : AC-3
Формат/Информация : Audio Coding 3
Расширение режима : CM (complete main)
Параметр Endianness формата : Big
Идентификатор кодека : 2000
Продолжительность : 1 ч. 54 м.
Вид битрейта : Постоянный
Битрейт : 448 Кбит/сек
Каналы : 2 канала
Расположение каналов : Front: L R
Частота : 48,0 КГц
Битовая глубина : 16 бит
Метод сжатия : С потерями
Размер потока : 368 Мбайт (16%)
Выравнивание : Соединение по промежуткам
Продолжительность промежутка : 40 мс. (1,00 видеокадр)
Время предзагрузки промежутка : 512 мс.

Аудио #2
Идентификатор : 2
Формат : AC-3
Формат/Информация : Audio Coding 3
Расширение режима : CM (complete main)
Параметр Endianness формата : Big
Идентификатор кодека : 2000
Продолжительность : 1 ч. 54 м.
Вид битрейта : Постоянный
Битрейт : 448 Кбит/сек
Каналы : 2 канала
Расположение каналов : Front: L R
Частота : 48,0 КГц
Битовая глубина : 16 бит
Метод сжатия : С потерями
Задержка видео : 28 мс.
Размер потока : 368 Мбайт (16%)
Выравнивание : Разделение по промежуткам
Продолжительность промежутка : 40 мс. (1,00 видеокадр)
Время предзагрузки промежутка : 500 мс.

piratbit.cc



Скачать Собор Парижской Богоматери через торрент http://pic.kartinco.top/images/1/pful6lz8nr.jpg Скачать фильм Собор Парижской Богоматери через торрент бесплантно в хорошем качестве Описание: Классическая экранизация романа Виктора Гюго отличается прежде всего декорациями и скрупулезным воссозданием эпохи царствования ... 9.8 10 5
Info! Золотая раздача, скачанное не засчитывается.
Торрент: Зарегистрирован [2012-09-30 06:48] · скачан: 68 раз
Статус: √ проверено
Размер: 2.18 GB
Как cкачать? Как скачать Собор Парижской Богоматери через торрент | qTorrent

% Раздел Тема Автор DL S | L
Концерты [ 1.69 GB ] Собор Парижской Богоматери / Notre-Dame de Paris [1999 музыка HDRip] Run Скачать
1 | 0


>> Регистрируемся здесь <<






Отзывы и комментарии о схеме читаем и пишем здесь: ---> Отзывы и комментарии о схеме

Новые благодарочки в телеграм довольных пользователей:
скриншот   скриншот   скриншот   скриншот   скриншот
    Дорогой пользователь! Огромная просьба, поблагодарите релизера, оцените раздачу и оставьте свои комментарий, если Вы скачали Собор Парижской Богоматери через торрент бесплатно! Внесите свою лепту в развитие PiratBit!
    Комментировать посты могут только пользователи прошедшие не сложную регистрацию
    Показать сообщения:    

    Собор Парижской Богоматери через торрент
    Скачать бесплатно Собор Парижской Богоматери
    Собор Парижской Богоматери скачать торрент
    Собор Парижской Богоматери смотреть онлайн
    Cкачать фильм Собор Парижской Богоматери бесплатно
    Собор Парижской Богоматери скачать торрент в хорошем качестве
    Собор Парижской Богоматери смотреть онлайн бесплатно в хорошем качестве


    Вы не можете начинать темы
    Вы не можете отвечать на сообщения
    Вы не можете редактировать свои сообщения
    Вы не можете удалять свои сообщения
    Вы не можете голосовать в опросах
    Вы не можете прикреплять файлы к сообщениям
    Вы можете скачивать файлы